(Heavy Metal/Hard Rock) VA - Ronnie James Dio - This Is Your Life (Japanese Edition) - 2014, FLAC (image+.cue), lossless

 
 Статистика раздачи 
Размер: 679.37 МБ   |  Зарегистрирован: 07 окт 2014, 07:29   |   .torrent скачан: 3 раз
Сидеров: 1  [ 0 байт/сек ]     Личеров: 0  [ 0 байт/сек ]  
  

(Heavy Metal/Hard Rock) VA - Ronnie James Dio - This Is Your Life (Japanese Edition) - 2014, FLAC (image+.cue), lossless

Сообщение Thistoll » 07 окт 2014, 07:29


VA - Ronnie James Dio - This Is Your Life (Japanese Edition)

Жанр: Heavy Metal/Hard Rock
Носитель: CD
Страна-производитель диска: Japan
Год издания: 2014
Издатель (лейбл): Warner Music Japan
Номер по каталогу: WPCR-15630
Страна: International
Аудиокодек: FLAC (*.flac)
Тип рипа: image+.cue
Битрейт аудио: lossless
Продолжительность: 01:18:35
Источник (релизер): My CD
Наличие сканов в содержимом раздачи: да
Треклист:

01. Neon Knights - Anthrax
02. The Last In Line - Tenacious D
03. The Mob Rules - Adrenaline Mob
04. Rainbow In The Dark - Corey Taylor,Jason Christopher, Christian Martucci, Roy Mayorga, Satchel
05. Straight Through The Heart - Halestorm
06. Starstruck - Motorhead with Biff Byford
07. The Temple Of The King - Scorpions
08. Egypt (The Chains Are On) - Doro
09. Holy Diver - Killswitch Engage
10. Catch The Rainbow - Glenn Hughes
11. I - Oni Logan, Jimmy Bain, Rowan Robertson, Brian Tichy
12. Man On The Silver Mountain - Rob Halford, Doug Aldrich, Vinny Appice, Jeff Pilson, Scott Warren
13. Ronnie Rising Medley - Metallica (featuring A Light In The Black, Tarot Woman, Stargazer, Kill The King)
14. This Is Your Life - Dio
15. Heaven And Hell - Stryper (Bonus Track)
16. Stand Up And Shout - Dio Disciples (Bonus Track)


Код: Выделить всё
Exact Audio Copy V1.0 beta 3 from 29. August 2011

EAC extraction logfile from 8. April 2014, 10:23

V.A. / Ronnie James Dio - This Is Your Life (Japanese Edition)

Used drive  : hp      DVDRAM GT30L   Adapter: 0  ID: 0

Read mode               : Secure
Utilize accurate stream : Yes
Defeat audio cache      : Yes
Make use of C2 pointers : No

Read offset correction                      : 103
Overread into Lead-In and Lead-Out          : No
Fill up missing offset samples with silence : Yes
Delete leading and trailing silent blocks   : No
Null samples used in CRC calculations       : Yes
Used interface                              : Native Win32 interface for Win NT & 2000

Used output format              : User Defined Encoder
Selected bitrate                : 128 kBit/s
Quality                         : High
Add ID3 tag                     : No
Command line compressor         : C:\Program Files (x86)\Exact Audio Copy\FLAC\FLAC.EXE
Additional command line options : -V -8 -T "Date=%year%" -T "Genre=%genre%" -T"COMMENT=Ripped by  korrOZZYya" -8 -V %source%

TOC of the extracted CD

     Track |   Start  |  Length  | Start sector | End sector
    ---------------------------------------------------------
        1  |  0:00.00 |  4:28.61 |         0    |    20160
        2  |  4:28.61 |  3:43.58 |     20161    |    36943
        3  |  8:12.44 |  3:17.33 |     36944    |    51751
        4  | 11:30.02 |  4:24.34 |     51752    |    71585
        5  | 15:54.36 |  3:58.01 |     71586    |    89436
        6  | 19:52.37 |  4:05.62 |     89437    |   107873
        7  | 23:58.24 |  4:37.04 |    107874    |   128652
        8  | 28:35.28 |  6:09.40 |    128653    |   156367
        9  | 34:44.68 |  4:09.09 |    156368    |   175051
       10  | 38:54.02 |  6:41.38 |    175052    |   205164
       11  | 45:35.40 |  5:30.04 |    205165    |   229918
       12  | 51:05.44 |  5:17.44 |    229919    |   253737
       13  | 56:23.13 |  9:04.09 |    253738    |   294546
       14  | 65:27.22 |  3:26.16 |    294547    |   310012
       15  | 68:53.38 |  6:03.30 |    310013    |   337267
       16  | 74:56.68 |  3:38.72 |    337268    |   353689

Range status and errors

Selected range

     Filename D:\Music\korrOZZYya\V.A. - Ronnie James Dio - This Is Your Life (Japanese Edition) - 2014\V.A. - Ronnie James Dio - This Is Your Life (Japanese Edition).wav

     Peak level 100.0 %
     Extraction speed 2.3 X
     Range quality 100.0 %
     Test CRC 8A2C4BDB
     Copy CRC 8A2C4BDB
     Copy OK

No errors occurred

AccurateRip summary

Track  1  not present in database
Track  2  not present in database
Track  3  not present in database
Track  4  not present in database
Track  5  not present in database
Track  6  not present in database
Track  7  not present in database
Track  8  not present in database
Track  9  not present in database
Track 10  not present in database
Track 11  not present in database
Track 12  not present in database
Track 13  not present in database
Track 14  not present in database
Track 15  not present in database
Track 16  not present in database

None of the tracks are present in the AccurateRip database

End of status report

---- CUETools DB Plugin V2.1.3

[CTDB TOCID: daU.dgUUTBMuJn2XcJx7xcF8SA8-] found, Submit result: daU.dgUUTBMuJn2XcJx7xcF8SA8- has been confirmed
[c2b5893c] (2/2) Accurately ripped

==== Log checksum 3BC4817E0A58A667B408E6E6CBE064BA060467A9BAF5562B2871F9CB4C335130 ====
Код: Выделить всё
REM GENRE "Heavy Metal"
REM DATE 2014
REM DISCID FA126B10
REM COMMENT "ExactAudioCopy v1.0b3"
PERFORMER "V.A."
TITLE "Ronnie James Dio - This Is Your Life (Japanese Edition)"
FILE "V.A. - Ronnie James Dio - This Is Your Life (Japanese Edition).flac" WAVE
  TRACK 01 AUDIO
    TITLE "Neon Knights"
    PERFORMER "Anthrax"
    INDEX 01 00:00:00
  TRACK 02 AUDIO
    TITLE "The Last In Line"
    PERFORMER "Tenacious D"
    INDEX 01 04:28:61
  TRACK 03 AUDIO
    TITLE "The Mob Rules"
    PERFORMER "Adrenaline Mob"
    INDEX 01 08:12:44
  TRACK 04 AUDIO
    TITLE "Rainbow In The Dark"
    PERFORMER "Corey Taylor, Roy Mayorga, Satchel, Christian Martucci, Jason Christopher"
    INDEX 01 11:30:02
  TRACK 05 AUDIO
    TITLE "Straight Through The Heart"
    PERFORMER "Halestorm"
    INDEX 01 15:54:36
  TRACK 06 AUDIO
    TITLE "Starstruck"
    PERFORMER "Motorhead with Biff Byford"
    INDEX 01 19:52:37
  TRACK 07 AUDIO
    TITLE "The Temple Of The King"
    PERFORMER "Scorpions"
    INDEX 01 23:58:24
  TRACK 08 AUDIO
    TITLE "Egypt (The Chains Are On)"
    PERFORMER "Doro"
    INDEX 01 28:35:28
  TRACK 09 AUDIO
    TITLE "Holy Diver"
    PERFORMER "Killswitch Engage"
    INDEX 01 34:44:68
  TRACK 10 AUDIO
    TITLE "Catch The Rainbow"
    PERFORMER "Glenn Hughes, Simon Wright, Craig Goldy, Rudy Sarzo, Scott Warren"
    INDEX 01 38:54:02
  TRACK 11 AUDIO
    TITLE "I"
    PERFORMER "Oni Logan, Jimmy Bain, Rowan Robertson, Brian Tichy"
    INDEX 01 45:35:40
  TRACK 12 AUDIO
    TITLE "Man On The Silver Mountain"
    PERFORMER "Rob Halford, Vinny Appice, Doug Aldrich, Jeff Pilson, Scott Warren"
    INDEX 01 51:05:44
  TRACK 13 AUDIO
    TITLE "Ronnie Rising Medley"
    PERFORMER "Metallica (Feat. A Light In The Black, Tarot Woman, Stargazer, Kill The King)"
    INDEX 01 56:23:13
  TRACK 14 AUDIO
    TITLE "This Is Your Life"
    PERFORMER "Dio"
    INDEX 01 65:27:22
  TRACK 15 AUDIO
    TITLE "Heaven And Hell"
    PERFORMER "Stryper"
    INDEX 01 68:53:38
  TRACK 16 AUDIO
    TITLE "Stand Up And Shout"
    PERFORMER "Dio Disciples"
    INDEX 01 74:56:68
Объявляю благодарность
qazaqazaq666 за работу над сканами
Материал предназначен для ознакомления
 
Не забывайте говорить Спасибо. Не уходите с раздачи!   
Торрент: Зарегистрирован [07 окт 2014, 07:29] Для скачивания .torrent
необходима регистрация
Или скачать с помощью
MediaGet
Статус:
Проверен
 
.torrent скачан: 3 раз
Хэш: 79e5640bd5f30c8a81aa8999c9bcfc717edbcf95
Размер: 679.37 МБ (712 374 850 байт)
Стать Автором раздачи
 
 
Раздал: 6.67 ГБ
Скачал: 302.5 МБ
Ратио: 22.576
Сообщения: 374198
Зарегистрирован: 17 апр 2014, 11:05


  • Похожие торренты
    Ответы
    Просмотры
    Последнее сообщение

Вернуться в Сборники "Зарубежный Metal" (lossless)

Ресурс не предоставляет электронные версии произведений, а занимается лишь коллекционированием и каталогизацией ссылок, присылаемых и публикуемых на форуме нашими читателями. Если вы являетесь правообладателем какого-либо представленного материала и не желаете чтобы ссылка на него находилась в нашем каталоге, свяжитесь с нами и мы незамедлительно удалим её. Файлы для обмена на трекере предоставлены пользователями сайта, и администрация не несёт ответственности за их содержание. Просьба не заливать файлы, защищенные авторскими правами, а также файлы нелегального содержания!
cron