(Power Metal) VA - Power Metal Ballads vol. 5, 6, 7, 8 - 2007, WAVPack (image+.cue), lossless

 
 Статистика раздачи 
Размер: 1.88 ГБ   |  Зарегистрирован: 07 окт 2014, 07:30   |   .torrent скачан: 1 раз
Сидеров: 1  [ 0 байт/сек ]     Личеров: 0  [ 0 байт/сек ]  
  

(Power Metal) VA - Power Metal Ballads vol. 5, 6, 7, 8 - 2007, WAVPack (image+.cue), lossless

Сообщение Thistoll » 07 окт 2014, 07:30

VA - Power Metal Ballads vol. 5, 6, 7, 8

Жанр: Сборник Power Metal
Год выпуска диска: 2007
Аудио кодек: WAVPack
Тип рипа: image+.cue
Битрейт аудио: lossless
Трэклист:
01. "Arachnes - Still Waters"
02. "Heimdall - Cold"
03. "House Of Lords - All The Pieces Falling"
04. "Brazen Abbot - Bring The Colours Home"
05. "Masi - Writing On The Wall"
06. "Mattson - Chained To My Pain"
07. "UDO - Tears Of A Clown"
08. "House Of Lords - Field Of Shattered Dreams"
09. "Shining Fury - Memories"
10. "Brazen Abbot - I'll Be Free"
11. "Silent Force - Save Me From Myself"
12. "Vanden Plas - Fireroses Dance"
13. "UDO - One Love Voice"
14. "Steel Seal - Sund And Steel"
15. "Freedom Call - Words Of Endeavour"
Exact Audio Copy V0.99 prebeta 3 from 28. July 2007

EAC extraction logfile from 27. September 2007, 18:47

Power Metal Ballads Vol.5 / Various Artist

Used drive : _NEC DVD_RW ND-2500A Adapter: 0 ID: 0

Read mode : Secure
Utilize accurate stream : Yes
Defeat audio cache : Yes
Make use of C2 pointers : No

Read offset correction : 48
Overread into Lead-In and Lead-Out : No
Fill up missing offset samples with silence : Yes
Delete leading and trailing silent blocks : No
Null samples used in CRC calculations : No
Used interface : Native Win32 interface for Win NT & 2000

Used output format : User Defined Encoder
Selected bitrate : 128 kBit/s
Quality : High
Add ID3 tag : No
Command line compressor : C:\Program Files\Exact Audio Copy\wavpack.exe
Additional command line options : -hm -w "[email protected]*.cue" -w "Artist=%a" -w "Album=%g" -w "Year=%y" -w "Genre=%m" %s %d
Use compression offset : 48

TOC of the extracted CD

Track | Start | Length | Start sector | End sector
---------------------------------------------------------
1 | 0:00.00 | 3:35.60 | 0 | 16184
2 | 3:35.60 | 5:20.41 | 16185 | 40225
3 | 8:56.26 | 5:31.23 | 40226 | 65073
4 | 14:27.49 | 5:24.05 | 65074 | 89378
5 | 19:51.54 | 6:03.00 | 89379 | 116603
6 | 25:54.54 | 4:04.68 | 116604 | 134971
7 | 29:59.47 | 3:55.27 | 134972 | 152623
8 | 33:54.74 | 5:53.01 | 152624 | 179099
9 | 39:48.00 | 8:11.27 | 179100 | 215951
10 | 47:59.27 | 4:00.35 | 215952 | 233986
11 | 51:59.62 | 4:56.10 | 233987 | 256196
12 | 56:55.72 | 6:04.59 | 256197 | 283555
13 | 63:00.56 | 4:22.43 | 283556 | 303248
14 | 67:23.24 | 7:03.74 | 303249 | 335047
15 | 74:27.23 | 0:45.00 | 335048 | 338422

Range status and errors

Selected range

Filename E:\Audio Ballads Vol.5\Power Metal Ballads Vol.5 - Various Artist.wav

Peak level 100.0 %
Range quality 100.0 %
Copy CRC B3C14275
Copy OK

No errors occurred

AccurateRip summary

Track 1 not present in database
Track 2 not present in database
Track 3 not present in database
Track 4 not present in database
Track 5 not present in database
Track 6 not present in database
Track 7 not present in database
Track 8 not present in database
Track 9 not present in database
Track 10 not present in database
Track 11 not present in database
Track 12 not present in database
Track 13 not present in database
Track 14 not present in database
Track 15 not present in database

None of the tracks are present in the AccurateRip database

End of status report
#7701. Circus Maximus - Silence From Angels Above 04:09
02. Axel Rudi Pell - In The Air Tonight 08:40
03. Awake - Forgiven Now Forever 04:30
04. Artension - Take Me In Your Arms 05:25
05. Iron Mask - Warchild Requiem 02:53
06. Almah - Almah 05:36
07. Elegy - Labyrinth Of Dreams 06:11
08. Empire - Teenage Deadhead 04:46
09. Axel Rudi Pell - Heartbreaker 06:57
10. Gary John Barden - Change The Wind 04:24
11. Michael Schenker Group - Never Trust A Stranger [live] 05:39
12. Cornerstone - Some Have Dreams 05:28
13. Twinspirits - It's Just Life 07:29
14. Space Odyssey - A Perfect Day 03:57
Exact Audio Copy V0.99 prebeta 3 from 28. July 2007

EAC extraction logfile from 14. October 2007, 19:56

Various Artist / Power Metal Ballads Vol. 6

Used drive : HL-DT-STDVD-RAM GSA-H55N Adapter: 0 ID: 0

Read mode : Secure
Utilize accurate stream : Yes
Defeat audio cache : No
Make use of C2 pointers : No

Read offset correction : 102
Overread into Lead-In and Lead-Out : No
Fill up missing offset samples with silence : Yes
Delete leading and trailing silent blocks : No
Null samples used in CRC calculations : No
Used interface : Native Win32 interface for Win NT & 2000

Used output format : User Defined Encoder
Selected bitrate : 128 kBit/s
Quality : High
Add ID3 tag : No
Command line compressor : C:\Program Files\Exact Audio Copy\wavpack.exe
Additional command line options : -hm -w "[email protected]*.cue" -w "Artist=%a" -w "Album=%g" -w "Year=%y" -w "Genre=%m" %s %d

TOC of the extracted CD

Track | Start | Length | Start sector | End sector
---------------------------------------------------------
1 | 0:00.00 | 4:09.16 | 0 | 18690
2 | 4:09.16 | 8:40.04 | 18691 | 57694
3 | 12:49.20 | 4:30.23 | 57695 | 77967
4 | 17:19.43 | 5:25.48 | 77968 | 102390
5 | 22:45.16 | 2:53.56 | 102391 | 115421
6 | 25:38.72 | 5:36.36 | 115422 | 140657
7 | 31:15.33 | 6:11.45 | 140658 | 168527
8 | 37:27.03 | 4:46.70 | 168528 | 190047
9 | 42:13.73 | 6:57.65 | 190048 | 221387
10 | 49:11.63 | 4:24.49 | 221388 | 241236
11 | 53:36.37 | 5:39.30 | 241237 | 266691
12 | 59:15.67 | 5:28.26 | 266692 | 291317
13 | 64:44.18 | 7:29.22 | 291318 | 325014
14 | 72:13.40 | 3:57.17 | 325015 | 342806

Range status and errors

Selected range

Filename E:\Audio Ballads Vol.6\Various Artist - Power Metal Ballads vol. 6.wav

Peak level 100.0 %
Range quality 100.0 %
Copy CRC 399BC608
Copy OK

No errors occurred

End of status report
#77Pictorial Wand - Prologue 03:16
Cornerstone - Arrival/Walked On The Water 06:09
Awake - Begin Again 03:56
Gary Barden - Need Of Some Love 06:14
Rob Rock - Unconditional 04:57
Almah - Forgotten Land 04:09
Darkwater - The Play Part. I 02:34
Twinspirits - What You Want 06:55
Axel Rudi Pell - Like A Child Again 04:48
Keldian - Redshift 05:58
Pictorial Wand - Greed Pt.I - The Golden Path 07:46
Saracen - Vive Dieu...Saint Amour 04:50
Saracen - Lament 03:43
Rob Rock - Ode To Alexander 03:19
Exact Audio Copy V0.99 prebeta 3 from 28. July 2007

EAC extraction logfile from 27. October 2007, 20:29

Various Artist / Power Metal Ballads Vol. 7

Used drive : HL-DT-STDVD-RAM GSA-H55N Adapter: 0 ID: 0

Read mode : Secure
Utilize accurate stream : Yes
Defeat audio cache : Yes
Make use of C2 pointers : No

Read offset correction : 102
Overread into Lead-In and Lead-Out : No
Fill up missing offset samples with silence : Yes
Delete leading and trailing silent blocks : No
Null samples used in CRC calculations : No
Used interface : Native Win32 interface for Win NT & 2000

Used output format : User Defined Encoder
Selected bitrate : 128 kBit/s
Quality : High
Add ID3 tag : No
Command line compressor : C:\Program Files\Exact Audio Copy\wavpack.exe
Additional command line options : -hm -w "[email protected]*.cue" -w "Artist=%a" -w "Album=%g" -w "Year=%y" -w "Genre=%m" %s %d

TOC of the extracted CD

Track | Start | Length | Start sector | End sector
---------------------------------------------------------
1 | 0:00.00 | 3:16.06 | 0 | 14705
2 | 3:16.06 | 1:08.44 | 14706 | 19849
3 | 4:24.50 | 5:03.14 | 19850 | 42588
4 | 9:27.64 | 3:58.13 | 42589 | 60451
5 | 13:26.02 | 6:15.45 | 60452 | 88621
6 | 19:41.47 | 4:58.72 | 88622 | 111043
7 | 24:40.44 | 4:09.22 | 111044 | 129740
8 | 28:49.66 | 2:36.25 | 129741 | 141465
9 | 31:26.16 | 6:56.46 | 141466 | 172711
10 | 38:22.62 | 4:50.06 | 172712 | 194467
11 | 43:12.68 | 5:59.69 | 194468 | 221461
12 | 49:12.62 | 7:45.60 | 221462 | 256396
13 | 56:58.47 | 4:49.50 | 256397 | 278121
14 | 61:48.22 | 3:44.41 | 278122 | 294962
15 | 65:32.63 | 3:19.06 | 294963 | 309893

Range status and errors

Selected range

Filename E:\Audio Ballads Vol.7\Various Artist - Power Metal Ballads Vol. 7.wav

Peak level 100.0 %
Range quality 100.0 %
Copy CRC 6115D9CD
Copy OK

No errors occurred

End of status report
#7701 "Vitalij Kuprij - Theme By Albinoni"
02 "Axel Rudi Pell - Broken Heart"
03 "Cornerstone - I'm Alive"
04 "Orphaned Land - The Calm Before he Flood (Instrumental)"
05 "Almah - Primitive Chaos"
06 "Threshold - Life Flow (Acoustic Version)"
07 "Vitalij Kuprij - Emperor's Will"
08 "Saracen - Where Was There's God"
09 "Mob Rules - Hold One (Reprise)"
10 "Die Apokalyptischen Reiter - Master Of The Wind (Manowar)"
11 "Vitalij Kuprij - Living To Live"
12 "Pictorial Wand - The King And His Land Pt. II - Prensiveness"
13 "Saracen - Vox In Excelso"
14 "Vitalij Kuprij - Let The Future Unfold"
15 "Mob Rules - Hold On (Original Version)"
16 "Vitalij Kuprij - Forgive"
Exact Audio Copy V0.99 prebeta 3 from 28. July 2007

EAC extraction logfile from 29. October 2007, 0:22

Various Artist / Power Metal Ballads - Vol. 8

Used drive : HL-DT-STDVD-RAM GSA-H55N Adapter: 0 ID: 0

Read mode : Secure
Utilize accurate stream : Yes
Defeat audio cache : Yes
Make use of C2 pointers : No

Read offset correction : 102
Overread into Lead-In and Lead-Out : No
Fill up missing offset samples with silence : Yes
Delete leading and trailing silent blocks : No
Null samples used in CRC calculations : No
Used interface : Native Win32 interface for Win NT & 2000

Used output format : User Defined Encoder
Selected bitrate : 128 kBit/s
Quality : High
Add ID3 tag : No
Command line compressor : C:\Program Files\Exact Audio Copy\wavpack.exe
Additional command line options : -hm -w "[email protected]*.cue" -w "Artist=%a" -w "Album=%g" -w "Year=%y" -w "Genre=%m" %s %d

TOC of the extracted CD

Track | Start | Length | Start sector | End sector
---------------------------------------------------------
1 | 0:00.00 | 2:43.55 | 0 | 12279
2 | 2:43.55 | 5:11.05 | 12280 | 35609
3 | 7:54.60 | 6:42.43 | 35610 | 65802
4 | 14:37.28 | 4:27.09 | 65803 | 85836
5 | 19:04.37 | 3:19.64 | 85837 | 100825
6 | 22:24.26 | 3:28.27 | 100826 | 116452
7 | 25:52.53 | 5:13.51 | 116453 | 139978
8 | 31:06.29 | 7:00.49 | 139979 | 171527
9 | 38:07.03 | 5:02.65 | 171528 | 194242
10 | 43:09.68 | 5:40.60 | 194243 | 219802
11 | 48:50.53 | 8:01.13 | 219803 | 255890
12 | 56:51.66 | 2:55.45 | 255891 | 269060
13 | 59:47.36 | 3:59.60 | 269061 | 287045
14 | 63:47.21 | 6:53.42 | 287046 | 318062
15 | 70:40.63 | 3:18.66 | 318063 | 332978
16 | 73:59.54 | 2:15.23 | 332979 | 343126

Range status and errors

Selected range

Filename E:\Various Artist [2007] Power Metal Ballads - Vol. 8.wav

Peak level 100.0 %
Range quality 99.9 %
Copy CRC FE1A60E0
Copy OK

No errors occurred

End of status report
P.S.
Релиз скачан из Emule. Спасибо Leshpera из WWR.
 
Не забывайте говорить Спасибо. Не уходите с раздачи!   
Торрент: Зарегистрирован [07 окт 2014, 07:30] Для скачивания .torrent
необходима регистрация
Или скачать с помощью
MediaGet
Статус:
Проверен
 
.torrent скачан: 1 раз
Хэш: 7f9e7f2c16ee06814e4e68761d276f4fb8ace672
Размер: 1.88 ГБ (2 021 044 939 байт)
Стать Автором раздачи
 
 
Раздал: 6.67 ГБ
Скачал: 302.5 МБ
Ратио: 22.576
Сообщения: 374198
Зарегистрирован: 17 апр 2014, 11:05


  • Похожие торренты
    Ответы
    Просмотры
    Последнее сообщение

Вернуться в Сборники "Зарубежный Metal" (lossless)

Ресурс не предоставляет электронные версии произведений, а занимается лишь коллекционированием и каталогизацией ссылок, присылаемых и публикуемых на форуме нашими читателями. Если вы являетесь правообладателем какого-либо представленного материала и не желаете чтобы ссылка на него находилась в нашем каталоге, свяжитесь с нами и мы незамедлительно удалим её. Файлы для обмена на трекере предоставлены пользователями сайта, и администрация не несёт ответственности за их содержание. Просьба не заливать файлы, защищенные авторскими правами, а также файлы нелегального содержания!
cron