(Metal) VA - A Tribute To The Black Album (Metallica) - 2011, FLAC (tracks+.cue), lossless

 
 Статистика раздачи 
Размер: 419.97 МБ   |  Зарегистрирован: 07 окт 2014, 07:31   |   .torrent скачан: 0 раз
Сидеров: 1  [ 0 байт/сек ]     Личеров: 0  [ 0 байт/сек ]  
  

(Metal) VA - A Tribute To The Black Album (Metallica) - 2011, FLAC (tracks+.cue), lossless

Сообщение Thistoll » 07 окт 2014, 07:31

A Tribute To The Black Album

Жанр: Metal
Год издания диска: 2011
Аудиокодек: FLAC (*.flac)
Тип рипа: tracks+.cue
Битрейт аудио: lossless
Источник (релизер): wueman [what.cd]
Наличие сканов в содержимом раздачи: нет
Треклист:
01. Lemmy - Enter Sandman (5:13)
02. The New Black - Sad But True (5:32)
03. DevilDriver - Holier Than Thou (3:47)
04. Dark Age - The Unforgiven (5:19)
05. Callejón - Wherever I May Roam (4:41)
06. I.C.S. Vortex - Don't Tread On Me (3:10)
07. Neaera - Through The Never (4:04)
08. Doro - Nothing Else Matters (5:59)
09. Motorjesus - Of Wolf And Man (4:06)
10. Finntroll - The God That Failed (5:14)
11. Borknagar - My Friend Of Misery (6:17)
12. Sodom - The Struggle Within (3:45)
Код: Выделить всё
Exact Audio Copy V1.0 beta 1 from 15. November 2010

EAC extraction logfile from 24. August 2011, 21:41

Various / A Tribute To The Black Album

Used drive  : TSSTcorpDVD+-RW TS-L633C   Adapter: 0  ID: 1

Read mode               : Secure
Utilize accurate stream : Yes
Defeat audio cache      : Yes
Make use of C2 pointers : No

Read offset correction                      : 6
Overread into Lead-In and Lead-Out          : No
Fill up missing offset samples with silence : Yes
Delete leading and trailing silent blocks   : No
Null samples used in CRC calculations       : Yes
Used interface                              : Native Win32 interface for Win NT & 2000
Gap handling                                : Appended to previous track

Used output format              : Benutzerdefinierter Komprimierer
Selected bitrate                : 1024 kBit/s
Quality                         : High
Add ID3 tag                     : No
Command line compressor         : C:\Program Files (x86)\FLAC\flac.exe
Additional command line options : -V -8 -T "artist=%a" -T "title=%t" -T "album=%g" -T "date=%y" -T "tracknumber=%n" %s

TOC of the extracted CD

     Track |   Start  |  Length  | Start sector | End sector
    ---------------------------------------------------------
        1  |  0:00.00 |  5:13.17 |         0    |    23491
        2  |  5:13.17 |  5:32.30 |     23492    |    48421
        3  | 10:45.47 |  3:47.20 |     48422    |    65466
        4  | 14:32.67 |  5:19.36 |     65467    |    89427
        5  | 19:52.28 |  4:40.72 |     89428    |   110499
        6  | 24:33.25 |  3:10.01 |    110500    |   124750
        7  | 27:43.26 |  4:04.10 |    124751    |   143060
        8  | 31:47.36 |  5:58.41 |    143061    |   169951
        9  | 37:46.02 |  4:05.56 |    169952    |   188382
       10  | 41:51.58 |  5:13.73 |    188383    |   211930
       11  | 47:05.56 |  6:16.72 |    211931    |   240202
       12  | 53:22.53 |  3:44.70 |    240203    |   257072

Track  1

     Filename F:\utorrent\V.A. - A Tribute To The Black Album\01 - Lemmy - Enter Sandman.wav

     Pre-gap length  0:00:02.00

     Peak level 98.9 %
     Extraction speed 1.2 X
     Track quality 100.0 %
     Test CRC 9EC8C11F
     Copy CRC 9EC8C11F
     Track not present in AccurateRip database
     Copy OK

Track  2

     Filename F:\utorrent\V.A. - A Tribute To The Black Album\02 - The New Black - Sad But True.wav

     Pre-gap length  0:00:01.32

     Peak level 91.4 %
     Extraction speed 1.2 X
     Track quality 99.9 %
     Test CRC 6A60F740
     Copy CRC 6A60F740
     Track not present in AccurateRip database
     Copy OK

Track  3

     Filename F:\utorrent\V.A. - A Tribute To The Black Album\03 - DevilDriver - Holier Than Thou.wav

     Pre-gap length  0:00:00.44

     Peak level 90.7 %
     Extraction speed 1.4 X
     Track quality 100.0 %
     Test CRC E18F7311
     Copy CRC E18F7311
     Track not present in AccurateRip database
     Copy OK

Track  4

     Filename F:\utorrent\V.A. - A Tribute To The Black Album\04 - Dark Age - The Unforgiven.wav

     Pre-gap length  0:00:00.41

     Peak level 88.9 %
     Extraction speed 1.6 X
     Track quality 100.0 %
     Test CRC B8742A7C
     Copy CRC B8742A7C
     Track not present in AccurateRip database
     Copy OK

Track  5

     Filename F:\utorrent\V.A. - A Tribute To The Black Album\05 - Callejón - Wherever I May Roam.wav

     Pre-gap length  0:00:00.61

     Peak level 90.5 %
     Extraction speed 1.7 X
     Track quality 100.0 %
     Test CRC F48AF5B3
     Copy CRC F48AF5B3
     Track not present in AccurateRip database
     Copy OK

Track  6

     Filename F:\utorrent\V.A. - A Tribute To The Black Album\06 - I.C.S. Vortex - Don't Tread On Me.wav

     Pre-gap length  0:00:00.42

     Peak level 90.9 %
     Extraction speed 1.7 X
     Track quality 100.0 %
     Test CRC 3614C796
     Copy CRC 3614C796
     Track not present in AccurateRip database
     Copy OK

Track  7

     Filename F:\utorrent\V.A. - A Tribute To The Black Album\07 - Neaera - Through The Never.wav

     Peak level 98.9 %
     Extraction speed 1.8 X
     Track quality 100.0 %
     Test CRC 9BCB89F1
     Copy CRC 9BCB89F1
     Track not present in AccurateRip database
     Copy OK

Track  8

     Filename F:\utorrent\V.A. - A Tribute To The Black Album\08 - Doro - Nothing Else Matters.wav

     Pre-gap length  0:00:00.52

     Peak level 89.1 %
     Extraction speed 2.0 X
     Track quality 100.0 %
     Test CRC A91DAAE1
     Copy CRC A91DAAE1
     Track not present in AccurateRip database
     Copy OK

Track  9

     Filename F:\utorrent\V.A. - A Tribute To The Black Album\09 - Motorjesus - Of Wolf And Man.wav

     Pre-gap length  0:00:00.14

     Peak level 88.8 %
     Extraction speed 2.0 X
     Track quality 100.0 %
     Test CRC 7428C6CF
     Copy CRC 7428C6CF
     Track not present in AccurateRip database
     Copy OK

Track 10

     Filename F:\utorrent\V.A. - A Tribute To The Black Album\10 - Finntroll - The God That Failed.wav

     Pre-gap length  0:00:00.06

     Peak level 96.0 %
     Extraction speed 2.2 X
     Track quality 100.0 %
     Test CRC 1DF5B6F8
     Copy CRC 1DF5B6F8
     Track not present in AccurateRip database
     Copy OK

Track 11

     Filename F:\utorrent\V.A. - A Tribute To The Black Album\11 - Borknagar - My Friend Of Misery.wav

     Pre-gap length  0:00:00.54

     Peak level 99.3 %
     Extraction speed 2.3 X
     Track quality 100.0 %
     Test CRC CF7DCA1C
     Copy CRC CF7DCA1C
     Track not present in AccurateRip database
     Copy OK

Track 12

     Filename F:\utorrent\V.A. - A Tribute To The Black Album\12 - Sodom - The Struggle Within.wav

     Pre-gap length  0:00:00.20

     Peak level 99.4 %
     Extraction speed 2.2 X
     Track quality 100.0 %
     Test CRC 93A1CE94
     Copy CRC 93A1CE94
     Track not present in AccurateRip database
     Copy OK

None of the tracks are present in the AccurateRip database

No errors occurred

End of status report

==== Log checksum F3A933C9C474569B73B685165272117B0DA4EAE2D5AC0CF9C8D6EDDF127CB340 ====
Код: Выделить всё
REM GENRE Metal
REM DATE 2011
REM DISCID AD0D630C
REM COMMENT "ExactAudioCopy v1.0b1"
PERFORMER "Various"
TITLE "A Tribute To The Black Album"
FILE "01 - Lemmy - Enter Sandman.wav" WAVE
  TRACK 01 AUDIO
    TITLE "Enter Sandman"
    PERFORMER "Lemmy"
    INDEX 01 00:00:00
  TRACK 02 AUDIO
    TITLE "Sad But True"
    PERFORMER "The New Black"
    INDEX 00 05:11:68
FILE "02 - The New Black - Sad But True.wav" WAVE
    INDEX 01 00:00:00
  TRACK 03 AUDIO
    TITLE "Holier Than Thou "
    PERFORMER "DevilDriver"
    INDEX 00 05:31:72
FILE "03 - DevilDriver - Holier Than Thou.wav" WAVE
    INDEX 01 00:00:00
  TRACK 04 AUDIO
    TITLE "The Unforgiven"
    PERFORMER "Dark Age"
    INDEX 00 03:46:64
FILE "04 - Dark Age - The Unforgiven.wav" WAVE
    INDEX 01 00:00:00
  TRACK 05 AUDIO
    TITLE "Wherever I May Roam "
    PERFORMER "Callejуn"
    INDEX 00 05:18:65
FILE "05 - Callejуn - Wherever I May Roam.wav" WAVE
    INDEX 01 00:00:00
  TRACK 06 AUDIO
    TITLE "Don't Tread On Me"
    PERFORMER "I.C.S. Vortex"
    INDEX 00 04:40:40
FILE "06 - I.C.S. Vortex - Don't Tread On Me.wav" WAVE
    INDEX 01 00:00:00
FILE "07 - Neaera - Through The Never.wav" WAVE
  TRACK 07 AUDIO
    TITLE "Through The Never"
    PERFORMER "Neaera"
    INDEX 01 00:00:00
  TRACK 08 AUDIO
    TITLE "Nothing Else Matters"
    PERFORMER "Doro"
    INDEX 00 04:03:46
FILE "08 - Doro - Nothing Else Matters.wav" WAVE
    INDEX 01 00:00:00
  TRACK 09 AUDIO
    TITLE "Of Wolf And Man"
    PERFORMER "Motorjesus"
    INDEX 00 05:58:30
FILE "09 - Motorjesus - Of Wolf And Man.wav" WAVE
    INDEX 01 00:00:00
  TRACK 10 AUDIO
    TITLE "The God That Failed"
    PERFORMER "Finntroll"
    INDEX 00 04:05:51
FILE "10 - Finntroll - The God That Failed.wav" WAVE
    INDEX 01 00:00:00
  TRACK 11 AUDIO
    TITLE "My Friend Of Misery"
    PERFORMER "Borknagar"
    INDEX 00 05:13:32
FILE "11 - Borknagar - My Friend Of Misery.wav" WAVE
    INDEX 01 00:00:00
  TRACK 12 AUDIO
    TITLE "The Struggle Within"
    PERFORMER "Sodom"
    INDEX 00 06:16:57
FILE "12 - Sodom - The Struggle Within.wav" WAVE
    INDEX 01 00:00:00
 
Не забывайте говорить Спасибо. Не уходите с раздачи!   
Торрент: Зарегистрирован [07 окт 2014, 07:31] Для скачивания .torrent
необходима регистрация
Или скачать с помощью
MediaGet
Статус:
Проверен
 
.torrent скачан: 0 раз
Хэш: e290d668e5a17cace27e97ea5dec20654d6327a8
Размер: 419.97 МБ (440 375 409 байт)
Стать Автором раздачи
 
 
Раздал: 6.67 ГБ
Скачал: 302.5 МБ
Ратио: 22.576
Сообщения: 374198
Зарегистрирован: 17 апр 2014, 11:05


  • Похожие торренты
    Ответы
    Просмотры
    Последнее сообщение

Вернуться в Сборники "Зарубежный Metal" (lossless)

Ресурс не предоставляет электронные версии произведений, а занимается лишь коллекционированием и каталогизацией ссылок, присылаемых и публикуемых на форуме нашими читателями. Если вы являетесь правообладателем какого-либо представленного материала и не желаете чтобы ссылка на него находилась в нашем каталоге, свяжитесь с нами и мы незамедлительно удалим её. Файлы для обмена на трекере предоставлены пользователями сайта, и администрация не несёт ответственности за их содержание. Просьба не заливать файлы, защищенные авторскими правами, а также файлы нелегального содержания!
cron