(Heavy Metal) V.A. - Cover It Up Vol.2 (2xCD compilation) - 2005, APE (image+.cue), lossless

 
 Статистика раздачи 
Размер: 1.01 ГБ   |  Зарегистрирован: 07 окт 2014, 07:32   |   .torrent скачан: 0 раз
Сидеров: 1  [ 0 байт/сек ]     Личеров: 1  [ 0 байт/сек ]  
  

(Heavy Metal) V.A. - Cover It Up Vol.2 (2xCD compilation) - 2005, APE (image+.cue), lossless

Сообщение Thistoll » 07 окт 2014, 07:32

Various Artists - Cover It Up Vol.2 (2xCD compilation)


Жанр: Heavy Metal
Год выпуска диска: 2005
Производитель диска: Germany (Nuclear Blast records)
Релизер: Rimgaudas [MeTaLMaDNeSS.TeaM]
Аудио кодек: APE
Тип рипа: image+.cue
Битрейт аудио: lossless
Продолжительность: [01:12:59] & [01:12:31]Трэклист:
CD 1


01. [05:23] The Kovenant - Spaceman (Babylon Zoo)
02. [04:42] The 69 Eyes - You're Lost Little Girl (The Doors)
03. [05:45] Love Like Blood - Angie (Rolling Stones)
04. [03:31] Deathstars - White Wedding (Billy Idol)
05. [06:08] Life Of Agony - Don't You (Forget About Me) (Simple Minds)
06. [04:01] Type O Negative - Cinnamon Girl (Neil Young)
07. [03:53] H. I. M. - Wicked Game (Chris Isaak)
08. [05:18] Paradise Lost - Small Town Boy (Bronski Beat)
09. [04:29] Apoptygma Berzerk - A Strange Day (The Cure)
10. [03:57] Zeromancer - Send Me An Angel (Real Life)
11. [04:45] Crematory - Temple Of Love (The Sisters Of Mercy)
12. [03:39] Moonspell - Love Will Tear Us Apart (Joy Division)
13. [04:26] Graveworm - Losing My Religion (R.E.M.)
14. [05:05] Dimmu Borgir - Burn In Hell (Twisted Sister)
15. [03:32] Samael - I Love The Dead (Alice Cooper)
16. [04:26] Umbra Et Imago - Rock Me Amadeus (Falco)
Код: Выделить всё
EAC extraction logfile from 14. October 2005, 6:38 for CD
Various / Cover it Up vol.2 (CD1)

Used drive  : LITE-ON LTR-52327S   Adapter: 3  ID: 0
Read mode   : Secure with NO C2, accurate stream, disable cache
Combined read/write offset correction : 0
Overread into Lead-In and Lead-Out : No

Used output format : Internal WAV Routines
                     44.100 Hz; 16 Bit; Stereo

Other options      :
    Fill up missing offset samples with silence : Yes
    Delete leading and trailing silent blocks : No
    Installed external ASPI interface

Range status and errors
Selected range
     Filename D:\LLW\Cover it Up vol.2\CD1\CDImage.wav

     Peak level 99.2 %
     Range quality 100.0 %
     CRC CBF5DF83
     Copy OK

No errors occured

End of status report
Код: Выделить всё
[Verification date: 16.11.2009 17:46:28]
[Disc ID: 002c3134-020cc7ae-ca112610]
Track [ CRC    ] Status
 01 [16cd8d35] (01/01) Accurately ripped as in pressing(s) #1
 02 [efc61215] (01/01) Accurately ripped as in pressing(s) #1
 03 [e9ccb5d6] (01/01) Accurately ripped as in pressing(s) #1
 04 [557a38b4] (01/01) Accurately ripped as in pressing(s) #1
 05 [815798a3] (01/01) Accurately ripped as in pressing(s) #1
 06 [726b3efe] (01/01) Accurately ripped as in pressing(s) #1
 07 [663faef6] (01/01) Accurately ripped as in pressing(s) #1
 08 [486e28fb] (01/01) Accurately ripped as in pressing(s) #1
 09 [afeaecc5] (01/01) Accurately ripped as in pressing(s) #1
 10 [65d3929a] (01/01) Accurately ripped as in pressing(s) #1
 11 [2a104dfd] (01/01) Accurately ripped as in pressing(s) #1
 12 [dc6f2f9f] (01/01) Accurately ripped as in pressing(s) #1
 13 [511c0bec] (01/01) Accurately ripped as in pressing(s) #1
 14 [24924d34] (01/01) Accurately ripped as in pressing(s) #1
 15 [b9617b55] (01/01) Accurately ripped as in pressing(s) #1
 16 [397436c8] (01/01) Accurately ripped as in pressing(s) #1

Track [ CRC32  ]
 -- [18AF673F]
 01 [14BDE5AF]
 02 [17E334A2]
 03 [A717443B]
 04 [1D4502D9]
 05 [D4DDD625]
 06 [26FC230A]
 07 [C3FC96FA]
 08 [2AD66769]
 09 [B74E43B9]
 10 [E3CB76E0]
 11 [7B6D3714]
 12 [2D1EE6D8]
 13 [4DF93D46]
 14 [DEA0B72D]
 15 [44F45DFE]
 16 [5EE8170E]
Код: Выделить всё
AUDIOCHECKER v2.0 beta (build 457) - by Dester - [email protected]
~~~~~~~~~~~~~~~~~~~~~~~~~~~~~~~~~~
-=== DO NOT EDIT THIS FILE! ===-

Path: ...\CD1

1 -=- Cover It Up Vol.2 - CD1.ape -=- CDDA (100%)

262519620
CD 2

01. [05:01] Blutengel - Stay (Shakespere's Sister)
02. [03:49] Nightwish - Where Were You Last Night (Ankie Bagger)
03. [03:50] Angelzoom - Crawling (Linkin Park)
04. [04:37] Tapping The Vein - Cornflake Girl (Tori Amos)
05. [04:01] Theatre Of Tragedy - You Keep Me Hanging On (The Supremes)
06. [04:51] The Gathering - Life Is What You Make It (Talk Talk)
07. [04:41] To Die For - In The Heat Of The Night (Sandra)
08. [04:30] Underground Moon - Beds Are Burning (Midnight Oil)
09. [03:55] Sirenia - First We Take Manhatten (Leonard Cohen)
10. [04:59] Therion - Summernight City (ABBA)
11. [05:15] Evereve - House Of The Rising Sun (The Animals)
12. [05:20] Tiamat - Sympathy For The Devil (Rolling Stones)
13. [02:53] Amorphis - Light My Fire (The Doors)
14. [03:18] In Flames - Everything Counts (Depeche Mode)
15. [03:44] Disbelief - Democracy (Killing Joke)
16. [05:15] Sinner - Wherever I May Roam (Metallica)
17. [02:31] Die Apokalyptischen Reiter - Dschinghis Khan (Dschinghis Khan)
Код: Выделить всё
EAC extraction logfile from 14. October 2005, 6:58 for CD
Various / Cover it Up vol.2 (CD2)

Used drive  : LITE-ON LTR-52327S   Adapter: 3  ID: 0
Read mode   : Secure with NO C2, accurate stream, disable cache
Combined read/write offset correction : 0
Overread into Lead-In and Lead-Out : No

Used output format : Internal WAV Routines
                     44.100 Hz; 16 Bit; Stereo

Other options      :
    Fill up missing offset samples with silence : Yes
    Delete leading and trailing silent blocks : No
    Installed external ASPI interface

Range status and errors
Selected range
     Filename D:\LLW\Cover it Up vol.2\CD2\CDImage.wav

     Peak level 98.8 %
     Range quality 100.0 %
     CRC EAB8DF2A
     Copy OK

No errors occured

End of status report
Код: Выделить всё
[Verification date: 16.11.2009 17:12:30]
[Disc ID: 002e37aa-02488284-f8110a11]
Track [ CRC    ] Status
 01 [803a942d] (01/01) Accurately ripped as in pressing(s) #1
 02 [5893ab34] (01/01) Accurately ripped as in pressing(s) #1
 03 [66ae0832] (01/01) Accurately ripped as in pressing(s) #1
 04 [4acf1c21] (01/01) Accurately ripped as in pressing(s) #1
 05 [844a0b31] (01/01) Accurately ripped as in pressing(s) #1
 06 [5256cdcf] (01/01) Accurately ripped as in pressing(s) #1
 07 [cba37880] (01/01) Accurately ripped as in pressing(s) #1
 08 [34b949e7] (01/01) Accurately ripped as in pressing(s) #1
 09 [87453545] (01/01) Accurately ripped as in pressing(s) #1
 10 [ab6186c4] (01/01) Accurately ripped as in pressing(s) #1
 11 [8b92eb50] (01/01) Accurately ripped as in pressing(s) #1
 12 [1ae10d0a] (01/01) Accurately ripped as in pressing(s) #1
 13 [39b7b5eb] (01/01) Accurately ripped as in pressing(s) #1
 14 [8523080a] (01/01) Accurately ripped as in pressing(s) #1
 15 [d8363dc4] (01/01) Accurately ripped as in pressing(s) #1
 16 [f24217ed] (01/01) Accurately ripped as in pressing(s) #1
 17 [fba0e3a0] (01/01) Accurately ripped as in pressing(s) #1

Track [ CRC32  ]
 -- [564C735B]
 01 [7E0F735E]
 02 [138D8366]
 03 [6218E499]
 04 [ACCA68A9]
 05 [1AF42B84]
 06 [2AE23938]
 07 [364DC333]
 08 [6E18A508]
 09 [044466D3]
 10 [326A0AC4]
 11 [67459AEE]
 12 [B6750D51]
 13 [E5CCB8C2]
 14 [58F858D6]
 15 [F8E4D8D1]
 16 [03BCDC1B]
 17 [8DFF25D2]
Код: Выделить всё
AUDIOCHECKER v2.0 beta (build 457) - by Dester - [email protected]
~~~~~~~~~~~~~~~~~~~~~~~~~~~~~~~~~~
-=== DO NOT EDIT THIS FILE! ===-

Path: ...\CD2

1 -=- Cover It Up Vol.2 - CD2.ape -=- CDDA (100%)

262522436
ВНИМАНИЕ:

Торрент перезалит по причине более качественного рипа. Образы вытащены неимоверными усилиями воли с "осло сети", за что спасибо сидам и конечно релизеру - Rimgaudas [MeTaLMaDNeSS.TeaM] . Изменения коснулись исправления оффсетов до аккуратного извлечения (добавлено +6 оффсетов). Добавлены новые скрины для образов - спектрограмма и звуко.волна и отчеты аудиочекера.
 
Не забывайте говорить Спасибо. Не уходите с раздачи!   
Торрент: Зарегистрирован [07 окт 2014, 07:32] Для скачивания .torrent
необходима регистрация
Или скачать с помощью
MediaGet
Статус:
Проверен
 
.torrent скачан: 0 раз
Хэш: 3c2592b1766179df13f73939850bf0174039dd87
Размер: 1.01 ГБ (1 080 909 417 байт)
Стать Автором раздачи
 
 
Раздал: 6.67 ГБ
Скачал: 302.5 МБ
Ратио: 22.576
Сообщения: 374198
Зарегистрирован: 17 апр 2014, 11:05


  • Похожие торренты
    Ответы
    Просмотры
    Последнее сообщение

Вернуться в Сборники "Зарубежный Metal" (lossless)

Ресурс не предоставляет электронные версии произведений, а занимается лишь коллекционированием и каталогизацией ссылок, присылаемых и публикуемых на форуме нашими читателями. Если вы являетесь правообладателем какого-либо представленного материала и не желаете чтобы ссылка на него находилась в нашем каталоге, свяжитесь с нами и мы незамедлительно удалим её. Файлы для обмена на трекере предоставлены пользователями сайта, и администрация не несёт ответственности за их содержание. Просьба не заливать файлы, защищенные авторскими правами, а также файлы нелегального содержания!
cron