(True Black Metal) Moonblood (Tribute to) - Lightning Over The Burning Church - 2006, FLAC (image+.cue) lossless

 
 Статистика раздачи 
Размер: 414.58 МБ   |  Зарегистрирован: 07 окт 2014, 07:32   |   .torrent скачан: 0 раз
Сидеров: 1  [ 0 байт/сек ]     Личеров: 0  [ 0 байт/сек ]  
  

(True Black Metal) Moonblood (Tribute to) - Lightning Over The Burning Church - 2006, FLAC (image+.cue) lossless

Сообщение Thistoll » 07 окт 2014, 07:32

MOONBLOOD (Tribute to) - Lightning Over The Burning Church


Жанр: True Black Metal
Год издания диска: 2006
Издатель (лейбл): Thors hammer prod.
Номер по каталогу: THOR 004
Страна: Germany
Аудио кодек: FLAC (*.flac)
Тип рипа: image+.cue
Битрейт аудио: lossless
Источник (релизер): original CD
Наличие сканов в содержимом раздачи: да
Треклист:
1. Evil
2.Agazgul
3.Bagatur
4.Perverse Monastyr
5.Lycanthropy' s Spell
6.Nargaroth
7.Pagan Hellfire
8.Ravagar
9.Inferno
10.Arkenstone
11.Rhunhule
12.Labatut
Код: Выделить всё
Exact Audio Copy V0.99 prebeta 5 from 4. May 2009

Отчёт EAC об извлечении, выполненном 4. марта 2011, 17:57

Various / Lightning Over The Burning Church

Дисковод: Optiarc DVD RW AD-5240S   Adapter: 3  ID: 0

Режим чтения                 : Достоверность
Использование точного потока : Да
Отключение кэша аудио        : Да
Использование указателей C2  : Нет

Коррекция смещения при чтении                     : 48
Способность читать области Lead-in и Lead-out     : Нет
Заполнение пропущенных сэмплов тишиной            : Да
Удаление блоков с тишиной в начале и конце        : Нет
При вычислениях CRC использовались нулевые сэмплы : Да
Интерфейс                                         : Установленный внешний ASPI-интерфейс

Выходной формат          : Пользовательский кодировщик
Выбранный битрейт        : 768 kBit/s
Качество                 : Высокий
Добавление ID3-тэга      : Нет
Утилита сжатия           : C:\Program Files\Exact Audio Copy\FLAC\FLAC.EXE
Дополнительные параметры : -6 -V -T "ARTIST=%a" -T "TITLE=%t" -T "ALBUM=%g" -T "DATE=%y" -T "TRACKNUMBER=%n" -T "GENRE=%m" -T "COMMENT=%e" %s -o %d

TOC извлечённого CD

     Трек |   Старт  | Длительность | Начальный сектор | Конечный сектор
    ---------------------------------------------------------------------
       1  |  0:00.00 |    3:54.74   |           0      |      17623
       2  |  3:54.74 |    5:57.40   |       17624      |      44438
       3  |  9:52.39 |    4:04.31   |       44439      |      62769
       4  | 13:56.70 |    8:00.03   |       62770      |      98772
       5  | 21:56.73 |    6:38.20   |       98773      |     128642
       6  | 28:35.18 |    5:08.27   |      128643      |     151769
       7  | 33:43.45 |    4:28.00   |      151770      |     171869
       8  | 38:11.45 |    5:53.55   |      171870      |     198399
       9  | 44:05.25 |    4:08.55   |      198400      |     217054
      10  | 48:14.05 |    7:14.47   |      217055      |     249651
      11  | 55:28.52 |    6:35.29   |      249652      |     279305
      12  | 62:04.06 |    6:38.54   |      279306      |     309209

Характеристики диапазона извлечения и сообщения об ошибках

Выбранный диапазон

     Имя файла F:\ЯОБРАЗА\Various - Lightning Over The Burning Church.wav

     Пиковый уровень 100.0 %
     Качество диапазона 100.0 %
     CRC теста 40BED7E5
     CRC копии 40BED7E5
     Копирование... OK

Ошибок не произошло

AccurateRip: сводка

Трек  1  нет в базе данных
Трек  2  нет в базе данных
Трек  3  нет в базе данных
Трек  4  нет в базе данных
Трек  5  нет в базе данных
Трек  6  нет в базе данных
Трек  7  нет в базе данных
Трек  8  нет в базе данных
Трек  9  нет в базе данных
Трек 10  нет в базе данных
Трек 11  нет в базе данных
Трек 12  нет в базе данных

Ни одного трека нет в базе AccurateRip

Конец отчёта
Доп. информация: Ваши уши в клочья разнесут,
эти почитатели МУНБЛУД!
Limited to 500 copies
 
Не забывайте говорить Спасибо. Не уходите с раздачи!   
Торрент: Зарегистрирован [07 окт 2014, 07:32] Для скачивания .torrent
необходима регистрация
Или скачать с помощью
MediaGet
Статус:
Проверен
 
.torrent скачан: 0 раз
Хэш: 3f1ca2032f4f94adb4efa0ff2aa76442570571f1
Размер: 414.58 МБ (434 722 235 байт)
Стать Автором раздачи
 
 
Раздал: 6.67 ГБ
Скачал: 302.5 МБ
Ратио: 22.576
Сообщения: 374198
Зарегистрирован: 17 апр 2014, 11:05


  • Похожие торренты
    Ответы
    Просмотры
    Последнее сообщение

Вернуться в Сборники "Зарубежный Metal" (lossless)

Ресурс не предоставляет электронные версии произведений, а занимается лишь коллекционированием и каталогизацией ссылок, присылаемых и публикуемых на форуме нашими читателями. Если вы являетесь правообладателем какого-либо представленного материала и не желаете чтобы ссылка на него находилась в нашем каталоге, свяжитесь с нами и мы незамедлительно удалим её. Файлы для обмена на трекере предоставлены пользователями сайта, и администрация не несёт ответственности за их содержание. Просьба не заливать файлы, защищенные авторскими правами, а также файлы нелегального содержания!
cron