(Grindcore/Industrial/Crustpunk) VA - Grind Madness At The BBC: The Earache Peel Sessions (3CD Live) - 2009 (Napalm Death/Extreme Noise Terror/Carcass/Bolt Thrower/Godflesh/Unseen Terror/Heresy/Intense Degree), APE (image+.cue), lossless

 
 Статистика раздачи 
Размер: 1.65 ГБ   |  Зарегистрирован: 07 окт 2014, 07:32   |   .torrent скачан: 0 раз
Сидеров: 1  [ 0 байт/сек ]     Личеров: 0  [ 0 байт/сек ]  
  

(Grindcore/Industrial/Crustpunk) VA - Grind Madness At The BBC: The Earache Peel Sessions (3CD Live) - 2009 (Napalm Death/Extreme Noise Terror/Carcass/Bolt Thrower/Godflesh/Unseen Terror/Heresy/Intense Degree), APE (image+.cue), lossless

Сообщение Thistoll » 07 окт 2014, 07:32

VA - Grind Madness At The BBC: The Earache Peel Sessions (3CD Live)

Жанр: Grindcore / Death Metal / Industrial / Crustpunk
Год выпуска диска: 2009
Производитель диска: UK (Earache)
Аудио кодек: APE
Тип рипа: image+.cue
Битрейт аудио: lossless
Продолжительность: 71:47 / 75:20 / 70:24

CD 1:
Napalm Death
1-9: Recorded 13/08/87, broadcast 22/08/87
10-26: Recorded 08/03/88, broadcast 20/04/88
27-34: Recorded 12/08/90, broadcast 10/09/90
Extreme Noise Terror
35-42: Recorded 10/11/87, broadcast 17/11/87
43-48: Recorded 01/05/88, broadcast 11/05/88
49-56: Recorded 06/02/90, broadcast 08/03/90

CD 2:
Carcass
1-4: Recorded 13/12/88, broadcast 02/01/89
5-8: Recorded 02/12/90, broadcast 16/12/90
Bolt Thrower
9-12: Recorded 03/01/88, broadcast 13/01/88
13-16: Recorded 06/11/88, broadcast 16/11/88
17-20: Recorded 22/07/90, broadcast 04/09/90

CD3:
Godflesh
1-4: Recorded 27/08/89, broadcast 27/09/89
Unseen Terror
5-12: Recorded 22/03/88, broadcast 11/04/88
Heresy
13-18: Recorded 26/07/87, broadcast 03/08/87
19-25: Recorded 01/03/88, broadcast 09/03/88
26-31: Recorded 10/01/89, broadcast 18/01/89
Intense Degree
32-42: Recorded 28/02/88, broadcast 15/03/88

Трэклист:
1-01 Napalm Death - The Kill 0:19
1-02 Napalm Death - Prison Without Walls 0:34
1-03 Napalm Death - Dead 0:04
1-04 Napalm Death - Deceiver 0:39
1-05 Napalm Death - Lucid Fairytale 1:05
1-06 Napalm Death - In Extremis 0:06
1-07 Napalm Death - Blind To The Truth 0:22
1-08 Napalm Death - Negative Approach 0:28
1-09 Napalm Death - Common Enemy 0:14
1-10 Napalm Death - Obstinate Direction 1:02
1-11 Napalm Death - Life? 0:37
1-12 Napalm Death - You Suffer Pt. 2 0:14
1-13 Napalm Death - Multi National Corporations 1:01
1-14 Napalm Death - Instinct Of Survival 1:54
1-15 Napalm Death - Stigmatised 0:52
1-16 Napalm Death - Parasites 0:22
1-17 Napalm Death - Moral Crusade 1:25
1-18 Napalm Death - Worlds Apart 1:22
1-19 Napalm Death - M.A.D. 0:52
1-20 Napalm Death - Divine Death 0:57
1-21 Napalm Death - C.S. 1:08
1-22 Napalm Death - Control 1:16
1-23 Napalm Death - Walls 1:07
1-24 Napalm Death - Raging In Hell 1:18
1-25 Napalm Death - Conform Or Die 0:48
1-26 Napalm Death - S.O.B. 0:06
1-27 Napalm Death - Unchallenged Hate 1:57
1-28 Napalm Death - Mentally Murdered 2:05
1-29 Napalm Death - From Enslavement To Obliteration 1:30
1-30 Napalm Death - Suffer The Children 4:12
1-31 Napalm Death - Retreat To Nowhere 0:26
1-32 Napalm Death - Scum 2:27
1-33 Napalm Death - Deceiver 0:36
1-34 Napalm Death - Social Sterility 1:07
1-35 Extreme Noise Terror - False Profit 0:50
1-36 Extreme Noise Terror - Another Nail In The Coffin 1:49
1-37 Extreme Noise Terror - Use Your Mind 2:10
1-38 Extreme Noise Terror - Carry On Screaming 1:06
1-39 Extreme Noise Terror - Human Error 1:34
1-40 Extreme Noise Terror - Conned Through Life 1:22
1-41 Extreme Noise Terror - Only In It For The Music Part 2 1:42
1-42 Extreme Noise Terror - Take The Strain 1:37
1-43 Extreme Noise Terror - Murder 2:03
1-44 Extreme Noise Terror - No Threat 1:13
1-45 Extreme Noise Terror - Show Us You Care 2:02
1-46 Extreme Noise Terror - Propaganda 2:01
1-47 Extreme Noise Terror - System Enslavement 0:53
1-48 Extreme Noise Terror - Only In It For The Music Part 3 1:19
1-49 Extreme Noise Terror - Work For Never 1:43
1-50 Extreme Noise Terror - Subliminal Music (Mind Control) 1:50
1-51 Extreme Noise Terror - People Not Profit 1:19
1-52 Extreme Noise Terror - Punk Fact Or Faction 1:36
1-53 Extreme Noise Terror - I Am A Bloody Fool 2:42
1-54 Extreme Noise Terror - In It For Life 1:51
1-55 Extreme Noise Terror - Deceived 2:02
1-56 Extreme Noise Terror - Shock Treatment 2:31
2-01 Carcass - Crepitating Bowel Erosion 5:12
2-02 Carcass - Slash Dementia 3:26
2-03 Carcass - Cadaveric Incubator Of Endo Parasites 3:15
2-04 Carcass - Reek Of Putrefaction 3:36
2-05 Carcass - Empathological Necroticism 6:06
2-06 Carcass - Foeticide 2:56
2-07 Carcass - Fermenting Innards 2:56
2-08 Carcass - Exhume To Consume 4:02
2-09 Bolt Thrower - Forgotten Existence 3:57
2-10 Bolt Thrower - Attack In The Aftermath 3:29
2-11 Bolt Thrower - Psychological Warfare 3:26
2-12 Bolt Thrower - In Battle There Is No Law 4:13
2-13 Bolt Thrower - Drowned In Torment 3:08
2-14 Bolt Thrower - Eternal War 2:29
2-15 Bolt Thrower - Realm Of Chaos 3:01
2-16 Bolt Thrower - Domination 2:42
2-17 Bolt Thrower - Destructive Infinity 4:17
2-18 Bolt Thrower - Warmaster 4:32
2-19 Bolt Thrower - After Life 4:35
2-20 Bolt Thrower - Lost Souls Domain 4:02
3-01 Godflesh - Tiny Tears 3:11
3-02 Godflesh - Wound (Not Wound) 3:13
3-03 Godflesh - Pulp 6:10
3-04 Godflesh - Like Rats 4:11
3-05 Unseen Terror - Incompatible 1:12
3-06 Unseen Terror - Burned Beyond Recognition 1:14
3-07 Unseen Terror - Oblivion Descends 2:06
3-08 Unseen Terror - Divisions 1:44
3-09 Unseen Terror - Voice Your Opinion 3:15
3-10 Unseen Terror - Strong Enough To Change 2:03
3-11 Unseen Terror - Odie's Revenge 0:15
3-12 Unseen Terror - It's My Life 0:43
3-13 Heresy - Flowers (In Concrete) 2:59
3-14 Heresy - Belief 0:53
3-15 Heresy - Network Of Friends 0:50
3-16 Heresy - Sick Of Stupidity 1:41
3-17 Heresy - Too Slow To Judge 1:28
3-18 Heresy - A Sense Of Freedom 0:52
3-19 Heresy - Consume 1:24
3-20 Heresy - Face Up To It 0:55
3-21 Heresy - Into The Grey 1:34
3-22 Heresy - When Unity Becomes Solidarity 2:10
3-23 Heresy - The Street Enters The House 1:30
3-24 Heresy - Cornered Rat 0:44
3-25 Heresy - Open Up 1:38
3-26 Heresy - Everyday Madness Everyday 2:16
3-27 Heresy - Break The Connection 1:27
3-28 Heresy - Ghettoised 0:44
3-29 Heresy - Network Ends 2:11
3-30 Heresy - Release 1:16
3-31 Heresy - Genocide 1:19
3-32 Intense Degree - Hangin' On 2:18
3-33 Intense Degree - Vagrants 0:29
3-34 Intense Degree - Skate-Bored 1:27
3-35 Intense Degree - Intense Degree 0:14
3-36 Intense Degree - All The Guys 1:31
3-37 Intense Degree - Daydreams 1:52
3-38 Intense Degree - Take No Chances 0:32
3-39 Intense Degree - Future Shock 1:36
3-40 Intense Degree - Politician 0:35
3-41 Intense Degree - Allegiance 1:30
3-42 Intense Degree - Bursting 1:12
Отчёты EAC:
Exact Audio Copy V0.99 prebeta 5 from 4. May 2009

Отчёт EAC об извлечении, выполненном 11. мая 2010, 22:41

Various / Grind Madness At The BBC (disc 1)

Дисковод: _NEC DVD_RW ND-3540A Adapter: 0 ID: 0

Режим чтения : Достоверность
Использование точного потока : Да
Отключение кэша аудио : Да
Использование указателей C2 : Нет

Коррекция смещения при чтении : 48
Способность читать области Lead-in и Lead-out : Нет
Заполнение пропущенных сэмплов тишиной : Да
Удаление блоков с тишиной в начале и конце : Нет
При вычислениях CRC использовались нулевые сэмплы : Да
Интерфейс : Встроенный Win32-интерфейс для Win NT/2000

Выходной формат : Monkey's Audio (без потерь)
Выбранный битрейт : Fast Lossless Compression
Качество : Высокий
Добавление ID3-тэга : Да
Утилита сжатия : C:\Program Files (x86)\Monkey's Audio\MAC.exe

TOC извлечённого CD

Трек | Старт | Длительность | Начальный сектор | Конечный сектор
---------------------------------------------------------------------
1 | 0:00.00 | 0:19.15 | 0 | 1439
2 | 0:19.15 | 0:34.06 | 1440 | 3995
3 | 0:53.21 | 0:04.28 | 3996 | 4323
4 | 0:57.49 | 0:39.03 | 4324 | 7251
5 | 1:36.52 | 1:05.07 | 7252 | 12133
6 | 2:41.59 | 0:06.13 | 12134 | 12596
7 | 2:47.72 | 0:22.13 | 12597 | 14259
8 | 3:10.10 | 0:28.62 | 14260 | 16421
9 | 3:38.72 | 0:14.47 | 16422 | 17518
10 | 3:53.44 | 1:02.13 | 17519 | 22181
11 | 4:55.57 | 0:37.69 | 22182 | 25025
12 | 5:33.51 | 0:14.15 | 25026 | 26090
13 | 5:47.66 | 1:01.04 | 26091 | 30669
14 | 6:48.70 | 1:54.45 | 30670 | 39264
15 | 8:43.40 | 0:52.59 | 39265 | 43223
16 | 9:36.24 | 0:22.70 | 43224 | 44943
17 | 9:59.19 | 1:25.66 | 44944 | 51384
18 | 11:25.10 | 1:22.50 | 51385 | 57584
19 | 12:47.60 | 0:52.25 | 57585 | 61509
20 | 13:40.10 | 0:57.66 | 61510 | 65850
21 | 14:38.01 | 1:08.55 | 65851 | 71005
22 | 15:46.56 | 1:16.24 | 71006 | 76729
23 | 17:03.05 | 1:07.27 | 76730 | 81781
24 | 18:10.32 | 1:18.68 | 81782 | 87699
25 | 19:29.25 | 0:48.41 | 87700 | 91340
26 | 20:17.66 | 0:06.29 | 91341 | 91819
27 | 20:24.20 | 1:57.08 | 91820 | 100602
28 | 22:21.28 | 2:05.16 | 100603 | 109993
29 | 24:26.44 | 1:30.71 | 109994 | 116814
30 | 25:57.40 | 4:12.13 | 116815 | 135727
31 | 30:09.53 | 0:26.37 | 135728 | 137714
32 | 30:36.15 | 2:27.03 | 137715 | 148742
33 | 33:03.18 | 0:36.23 | 148743 | 151465
34 | 33:39.41 | 1:07.30 | 151466 | 156520
35 | 34:46.71 | 0:50.03 | 156521 | 160273
36 | 35:36.74 | 1:49.36 | 160274 | 168484
37 | 37:26.35 | 2:10.41 | 168485 | 178275
38 | 39:37.01 | 1:06.48 | 178276 | 183273
39 | 40:43.49 | 1:34.36 | 183274 | 190359
40 | 42:18.10 | 1:22.50 | 190360 | 196559
41 | 43:40.60 | 1:42.22 | 196560 | 204231
42 | 45:23.07 | 1:37.24 | 204232 | 211530
43 | 47:00.31 | 2:03.41 | 211531 | 220796
44 | 49:03.72 | 1:13.06 | 220797 | 226277
45 | 50:17.03 | 2:02.48 | 226278 | 235475
46 | 52:19.51 | 2:01.02 | 235476 | 244552
47 | 54:20.53 | 0:53.62 | 244553 | 248589
48 | 55:14.40 | 1:19.31 | 248590 | 254545
49 | 56:33.71 | 1:43.21 | 254546 | 262291
50 | 58:17.17 | 1:50.33 | 262292 | 270574
51 | 60:07.50 | 1:19.31 | 270575 | 276530
52 | 61:27.06 | 1:36.01 | 276531 | 283731
53 | 63:03.07 | 2:42.55 | 283732 | 295936
54 | 65:45.62 | 1:51.55 | 295937 | 304316
55 | 67:37.42 | 2:02.72 | 304317 | 313538
56 | 69:40.39 | 2:31.74 | 313539 | 324937

Характеристики диапазона извлечения и сообщения об ошибках

Выбранный диапазон

Имя файла C:\Users\Юрий\Downloads\Мои торренты\Grind Madness At The BBC\CD 1 - Napalm Death & Extreme Noise Terror\Various - Grind Madness At The BBC (disc 1).wav

Пиковый уровень 98.8 %
Качество диапазона 100.0 %
CRC копии 08B56DDE
Копирование... OK

Ошибок не произошло

AccurateRip: сводка

Трек 1 точное извлечение (доверие 5) [A7C48D8B]
Трек 2 точное извлечение (доверие 5) [2818BDDC]
Трек 3 нет в базе данных
Трек 4 точное извлечение (доверие 4) [161A0D9B]
Трек 5 точное извлечение (доверие 4) [667B3B87]
Трек 6 нет в базе данных
Трек 7 точное извлечение (доверие 4) [46B380EF]
Трек 8 точное извлечение (доверие 4) [9AF27CD5]
Трек 9 точное извлечение (доверие 4) [46A5E543]
Трек 10 точное извлечение (доверие 4) [E3C4BAC5]
Трек 11 точное извлечение (доверие 4) [59A0F61B]
Трек 12 точное извлечение (доверие 4) [BE808A25]
Трек 13 точное извлечение (доверие 4) [36221348]
Трек 14 точное извлечение (доверие 4) [1BC62EF0]
Трек 15 точное извлечение (доверие 4) [BF70FB3B]
Трек 16 точное извлечение (доверие 4) [4D76C2CC]
Трек 17 точное извлечение (доверие 4) [7185F938]
Трек 18 точное извлечение (доверие 4) [12AE7933]
Трек 19 точное извлечение (доверие 4) [5775DBC2]
Трек 20 точное извлечение (доверие 4) [084D7BF6]
Трек 21 точное извлечение (доверие 4) [5A617A56]
Трек 22 точное извлечение (доверие 4) [3EC0FD7D]
Трек 23 точное извлечение (доверие 4) [37D4A537]
Трек 24 точное извлечение (доверие 4) [9200E352]
Трек 25 точное извлечение (доверие 4) [D887FE6D]
Трек 26 точное извлечение (доверие 4) [DB92A74B]
Трек 27 точное извлечение (доверие 4) [FA8C861A]
Трек 28 точное извлечение (доверие 4) [9EB12631]
Трек 29 точное извлечение (доверие 5) [30273C57]
Трек 30 точное извлечение (доверие 5) [1D57437A]
Трек 31 точное извлечение (доверие 4) [59DDE233]
Трек 32 точное извлечение (доверие 4) [8789125F]
Трек 33 точное извлечение (доверие 4) [38A4AA8B]
Трек 34 точное извлечение (доверие 5) [DEB14644]
Трек 35 точное извлечение (доверие 5) [732F256B]
Трек 36 точное извлечение (доверие 4) [F1EDEF81]
Трек 37 точное извлечение (доверие 4) [8F3778B3]
Трек 38 точное извлечение (доверие 4) [9AC18B3F]
Трек 39 точное извлечение (доверие 4) [1C90D59C]
Трек 40 точное извлечение (доверие 4) [95315143]
Трек 41 точное извлечение (доверие 4) [DF46C4BF]
Трек 42 точное извлечение (доверие 4) [CA791D4A]
Трек 43 точное извлечение (доверие 4) [A4C9FE12]
Трек 44 точное извлечение (доверие 4) [837304CE]
Трек 45 точное извлечение (доверие 4) [366CBF0E]
Трек 46 точное извлечение (доверие 4) [F5082BFC]
Трек 47 точное извлечение (доверие 4) [60FCE46A]
Трек 48 точное извлечение (доверие 4) [EB660D88]
Трек 49 точное извлечение (доверие 4) [F9099982]
Трек 50 точное извлечение (доверие 4) [FD425691]
Трек 51 точное извлечение (доверие 4) [1E13E80B]
Трек 52 точное извлечение (доверие 4) [17BF6C0A]
Трек 53 точное извлечение (доверие 4) [830E4BD3]
Трек 54 точное извлечение (доверие 4) [A5C1C39B]
Трек 55 точное извлечение (доверие 5) [02E6A26D]
Трек 56 точное извлечение (доверие 4) [BAF8FB31]

54 трек(и) скопированы точно
2 трек(и) не содержатся в базе AccurateRip

Некоторые треки не прошли проверку на точность

Конец отчёта
Exact Audio Copy V0.99 prebeta 5 from 4. May 2009

Отчёт EAC об извлечении, выполненном 11. мая 2010, 23:10

Various / Grind Madness At The BBC (disc 2)

Дисковод: _NEC DVD_RW ND-3540A Adapter: 0 ID: 0

Режим чтения : Достоверность
Использование точного потока : Да
Отключение кэша аудио : Да
Использование указателей C2 : Нет

Коррекция смещения при чтении : 48
Способность читать области Lead-in и Lead-out : Нет
Заполнение пропущенных сэмплов тишиной : Да
Удаление блоков с тишиной в начале и конце : Нет
При вычислениях CRC использовались нулевые сэмплы : Да
Интерфейс : Встроенный Win32-интерфейс для Win NT/2000

Выходной формат : Monkey's Audio (без потерь)
Выбранный битрейт : Fast Lossless Compression
Качество : Высокий
Добавление ID3-тэга : Да
Утилита сжатия : C:\Program Files (x86)\Monkey's Audio\MAC.exe

TOC извлечённого CD

Трек | Старт | Длительность | Начальный сектор | Конечный сектор
---------------------------------------------------------------------
1 | 0:00.00 | 5:12.04 | 0 | 23403
2 | 5:12.04 | 3:26.34 | 23404 | 38887
3 | 8:38.38 | 3:15.30 | 38888 | 53542
4 | 11:53.68 | 3:36.20 | 53543 | 69762
5 | 15:30.13 | 6:06.32 | 69763 | 97244
6 | 21:36.45 | 2:56.14 | 97245 | 110458
7 | 24:32.59 | 2:56.54 | 110459 | 123712
8 | 27:29.38 | 4:02.17 | 123713 | 141879
9 | 31:31.55 | 3:57.59 | 141880 | 159713
10 | 35:29.39 | 3:29.56 | 159714 | 175444
11 | 38:59.20 | 3:26.19 | 175445 | 190913
12 | 42:25.39 | 4:13.12 | 190914 | 209900
13 | 46:38.51 | 3:08.56 | 209901 | 224056
14 | 49:47.32 | 2:29.02 | 224057 | 235233
15 | 52:16.34 | 3:01.53 | 235234 | 248861
16 | 55:18.12 | 2:42.73 | 248862 | 261084
17 | 58:01.10 | 4:17.24 | 261085 | 280383
18 | 62:18.34 | 4:32.34 | 280384 | 300817
19 | 66:50.68 | 4:35.15 | 300818 | 321457
20 | 71:26.08 | 4:02.11 | 321458 | 339618

Характеристики диапазона извлечения и сообщения об ошибках

Выбранный диапазон

Имя файла C:\Users\Юрий\Downloads\Мои торренты\Grind Madness At The BBC\CD 2 - Carcass & Bolt Thrower\Various - Grind Madness At The BBC (disc 2).wav

Пиковый уровень 98.8 %
Качество диапазона 99.9 %
CRC копии A417DF94
Копирование... OK

Ошибок не произошло

AccurateRip: сводка

Трек 1 точность не определена (достоверность 3) [F76D4778], AccurateRip вернул [E0B6249E]
Трек 2 точность не определена (достоверность 3) [2E2045A8], AccurateRip вернул [53C42EE2]
Трек 3 точность не определена (достоверность 3) [62F43C18], AccurateRip вернул [5EAD9F48]
Трек 4 точность не определена (достоверность 3) [7170F522], AccurateRip вернул [B3F92062]
Трек 5 точность не определена (достоверность 3) [6C78EFEB], AccurateRip вернул [095FDB31]
Трек 6 точность не определена (достоверность 3) [345A7618], AccurateRip вернул [DC4874EE]
Трек 7 точность не определена (достоверность 3) [7CAC2850], AccurateRip вернул [27D33CBA]
Трек 8 точность не определена (достоверность 2) [99543DE7], AccurateRip вернул [56EF1E07]
Трек 9 точность не определена (достоверность 2) [E8F51456], AccurateRip вернул [93F2BC12]
Трек 10 точность не определена (достоверность 2) [48F38D7F], AccurateRip вернул [63D8C1AF]
Трек 11 точность не определена (достоверность 2) [EB8DF41A], AccurateRip вернул [BC0DBE66]
Трек 12 точность не определена (достоверность 2) [512CEC8F], AccurateRip вернул [6E77408F]
Трек 13 точность не определена (достоверность 2) [54E945C8], AccurateRip вернул [CCA0C806]
Трек 14 точность не определена (достоверность 3) [BC5AD2B2], AccurateRip вернул [242DFB5C]
Трек 15 точность не определена (достоверность 3) [E8A87FF4], AccurateRip вернул [C21B38A2]
Трек 16 точность не определена (достоверность 3) [F8D1BBD5], AccurateRip вернул [FD26A48F]
Трек 17 точность не определена (достоверность 3) [36232EBA], AccurateRip вернул [521B88AA]
Трек 18 точность не определена (достоверность 3) [50D71A60], AccurateRip вернул [46664C8E]
Трек 19 точность не определена (достоверность 3) [AEB80121], AccurateRip вернул [9A3D14C7]
Трек 20 точность не определена (достоверность 3) [8626168B], AccurateRip вернул [6F1EDFDB]

Ни один трек не прошёл проверки на точность
В вашей базе может быть иной вариант штамповки диска

Конец отчёта
Exact Audio Copy V0.99 prebeta 5 from 4. May 2009

Отчёт EAC об извлечении, выполненном 11. мая 2010, 23:26

Various / Grind Madness at the BBC - MOSH381 (disc 3)

Дисковод: _NEC DVD_RW ND-3540A Adapter: 0 ID: 0

Режим чтения : Достоверность
Использование точного потока : Да
Отключение кэша аудио : Да
Использование указателей C2 : Нет

Коррекция смещения при чтении : 48
Способность читать области Lead-in и Lead-out : Нет
Заполнение пропущенных сэмплов тишиной : Да
Удаление блоков с тишиной в начале и конце : Нет
При вычислениях CRC использовались нулевые сэмплы : Да
Интерфейс : Встроенный Win32-интерфейс для Win NT/2000

Выходной формат : Monkey's Audio (без потерь)
Выбранный битрейт : Fast Lossless Compression
Качество : Высокий
Добавление ID3-тэга : Да
Утилита сжатия : C:\Program Files (x86)\Monkey's Audio\MAC.exe

TOC извлечённого CD

Трек | Старт | Длительность | Начальный сектор | Конечный сектор
---------------------------------------------------------------------
1 | 0:00.00 | 3:11.20 | 0 | 14344
2 | 3:11.20 | 3:13.55 | 14345 | 28874
3 | 6:25.00 | 6:10.17 | 28875 | 56641
4 | 12:35.17 | 4:11.12 | 56642 | 75478
5 | 16:46.29 | 1:12.07 | 75479 | 80885
6 | 17:58.36 | 1:14.08 | 80886 | 86443
7 | 19:12.44 | 2:06.50 | 86444 | 95943
8 | 21:19.19 | 1:44.07 | 95944 | 103750
9 | 23:03.26 | 3:15.05 | 103751 | 118380
10 | 26:18.31 | 2:03.46 | 118381 | 127651
11 | 28:22.02 | 0:15.70 | 127652 | 128846
12 | 28:37.72 | 0:43.44 | 128847 | 132115
13 | 29:21.41 | 2:59.31 | 132116 | 145571
14 | 32:20.72 | 0:53.50 | 145572 | 149596
15 | 33:14.47 | 0:50.57 | 149597 | 153403
16 | 34:05.29 | 1:41.09 | 153404 | 160987
17 | 35:46.38 | 1:28.37 | 160988 | 167624
18 | 37:15.00 | 0:52.34 | 167625 | 171558
19 | 38:07.34 | 1:24.62 | 171559 | 177920
20 | 39:32.21 | 0:55.10 | 177921 | 182055
21 | 40:27.31 | 1:34.16 | 182056 | 189121
22 | 42:01.47 | 2:10.55 | 189122 | 198926
23 | 44:12.27 | 1:30.18 | 198927 | 205694
24 | 45:42.45 | 0:44.45 | 205695 | 209039
25 | 46:27.15 | 1:38.50 | 209040 | 216439
26 | 48:05.65 | 2:16.09 | 216440 | 226648
27 | 50:21.74 | 1:27.13 | 226649 | 233186
28 | 51:49.12 | 0:44.09 | 233187 | 236495
29 | 52:33.21 | 2:11.10 | 236496 | 246330
30 | 54:44.31 | 1:16.57 | 246331 | 252087
31 | 56:01.13 | 1:19.08 | 252088 | 258020
32 | 57:20.21 | 2:18.42 | 258021 | 268412
33 | 59:38.63 | 0:29.74 | 268413 | 270661
34 | 60:08.62 | 1:27.69 | 270662 | 277255
35 | 61:36.56 | 0:14.54 | 277256 | 278359
36 | 61:51.35 | 1:31.12 | 278360 | 285196
37 | 63:22.47 | 1:52.23 | 285197 | 293619
38 | 65:14.70 | 0:32.39 | 293620 | 296058
39 | 65:47.34 | 1:36.28 | 296059 | 303286
40 | 67:23.62 | 0:35.02 | 303287 | 305913
41 | 67:58.64 | 1:30.56 | 305914 | 312719
42 | 69:29.45 | 1:12.04 | 312720 | 318123

Характеристики диапазона извлечения и сообщения об ошибках

Выбранный диапазон

Имя файла C:\Users\Юрий\Downloads\Мои торренты\Grind Madness At The BBC\CD 3 - Godflesh & Unseen Terror & Heresy & Intense Degree\Various - Grind Madness at the BBC - MOSH381 (disc 3).wav

Пиковый уровень 98.8 %
Качество диапазона 100.0 %
CRC копии 769FCE90
Копирование... OK

Ошибок не произошло

AccurateRip: сводка

Трек 1 точность не определена (достоверность 3) [BB419493], AccurateRip вернул [B3CC056B]
Трек 2 точность не определена (достоверность 3) [591548A0], AccurateRip вернул [2E904E74]
Трек 3 точность не определена (достоверность 3) [70A3898B], AccurateRip вернул [E5016E13]
Трек 4 точность не определена (достоверность 3) [014A88FE], AccurateRip вернул [016CFCDE]
Трек 5 точность не определена (достоверность 3) [23277742], AccurateRip вернул [7DE42F4E]
Трек 6 точность не определена (достоверность 3) [A9E162A0], AccurateRip вернул [CE926F08]
Трек 7 точность не определена (достоверность 3) [F5136E51], AccurateRip вернул [0AD7DD05]
Трек 8 точность не определена (достоверность 3) [E2F28214], AccurateRip вернул [ED9A647C]
Трек 9 точность не определена (достоверность 3) [02615933], AccurateRip вернул [6898D9F7]
Трек 10 точность не определена (достоверность 3) [CB652049], AccurateRip вернул [DCD1CE7F]
Трек 11 точность не определена (достоверность 3) [F4562D44], AccurateRip вернул [66CC13C0]
Трек 12 точность не определена (достоверность 3) [3AB0D055], AccurateRip вернул [F43FAC35]
Трек 13 точность не определена (достоверность 3) [5FB5927F], AccurateRip вернул [5A335955]
Трек 14 точность не определена (достоверность 3) [136FCDF1], AccurateRip вернул [709D3B70]
Трек 15 точность не определена (достоверность 3) [908176C6], AccurateRip вернул [E4E4B54D]
Трек 16 точность не определена (достоверность 3) [F657B48A], AccurateRip вернул [DAC2FBF0]
Трек 17 точность не определена (достоверность 3) [85EEE562], AccurateRip вернул [4BDE6E69]
Трек 18 точность не определена (достоверность 3) [E50D6D3C], AccurateRip вернул [80323051]
Трек 19 точность не определена (достоверность 3) [19179E42], AccurateRip вернул [D325F4BA]
Трек 20 точность не определена (достоверность 3) [FD753F1D], AccurateRip вернул [8B81C425]
Трек 21 точность не определена (достоверность 3) [4D611B8A], AccurateRip вернул [17F96D0C]
Трек 22 точность не определена (достоверность 3) [FE3E7AC6], AccurateRip вернул [622E03EA]
Трек 23 точность не определена (достоверность 3) [1557C1B6], AccurateRip вернул [92E2A119]
Трек 24 точность не определена (достоверность 3) [AA919941], AccurateRip вернул [12BFDB88]
Трек 25 точность не определена (достоверность 3) [33FC6B33], AccurateRip вернул [3BF88491]
Трек 26 точность не определена (достоверность 2) [3555D202], AccurateRip вернул [93E3D818]
Трек 27 точность не определена (достоверность 2) [32A84D04], AccurateRip вернул [AB919102]
Трек 28 точность не определена (достоверность 2) [BD14AB51], AccurateRip вернул [DB1E0187]
Трек 29 точность не определена (достоверность 2) [8BAF48BA], AccurateRip вернул [894D8E02]
Трек 30 точность не определена (достоверность 2) [93245FBC], AccurateRip вернул [AF2680F1]
Трек 31 точность не определена (достоверность 2) [723547DE], AccurateRip вернул [EED96DFB]
Трек 32 точность не определена (достоверность 2) [6F0B8DC0], AccurateRip вернул [14D81986]
Трек 33 точность не определена (достоверность 3) [1DFD7B25], AccurateRip вернул [F23D3B41]
Трек 34 точность не определена (достоверность 3) [DB6442FC], AccurateRip вернул [052721AA]
Трек 35 точность не определена (достоверность 3) [5C991FD2], AccurateRip вернул [009B2992]
Трек 36 точность не определена (достоверность 3) [24BF3E2F], AccurateRip вернул [0C23660F]
Трек 37 точность не определена (достоверность 3) [AAB6114A], AccurateRip вернул [9E31231E]
Трек 38 точность не определена (достоверность 3) [78CABCFA], AccurateRip вернул [021652F4]
Трек 39 точность не определена (достоверность 3) [9EAE00BC], AccurateRip вернул [BDDA8572]
Трек 40 точность не определена (достоверность 3) [90740495], AccurateRip вернул [D3147953]
Трек 41 точность не определена (достоверность 3) [3F0B2C72], AccurateRip вернул [20B3FA74]
Трек 42 точность не определена (достоверность 3) [E73BDB45], AccurateRip вернул [6BAF22E1]

Ни один трек не прошёл проверки на точность
В вашей базе может быть иной вариант штамповки диска

Конец отчёта
Примечание:

Диски фирменные. Изданы, как минимум, в трёх вариантах штамповок. На первом проверку AccurateRip не прошли два трека по причине их слишком малой длительности - не более 6 секунд.
 
Не забывайте говорить Спасибо. Не уходите с раздачи!   
Торрент: Зарегистрирован [07 окт 2014, 07:32] Для скачивания .torrent
необходима регистрация
Или скачать с помощью
MediaGet
Статус:
Проверен
 
.torrent скачан: 0 раз
Хэш: fbcdb835cadd612f42e507a5deacdd36e9bbc019
Размер: 1.65 ГБ (1 775 755 813 байт)
Стать Автором раздачи
 
 
Раздал: 6.67 ГБ
Скачал: 302.5 МБ
Ратио: 22.576
Сообщения: 374198
Зарегистрирован: 17 апр 2014, 11:05


  • Похожие торренты
    Ответы
    Просмотры
    Последнее сообщение

Вернуться в Сборники "Зарубежный Metal" (lossless)

Ресурс не предоставляет электронные версии произведений, а занимается лишь коллекционированием и каталогизацией ссылок, присылаемых и публикуемых на форуме нашими читателями. Если вы являетесь правообладателем какого-либо представленного материала и не желаете чтобы ссылка на него находилась в нашем каталоге, свяжитесь с нами и мы незамедлительно удалим её. Файлы для обмена на трекере предоставлены пользователями сайта, и администрация не несёт ответственности за их содержание. Просьба не заливать файлы, защищенные авторскими правами, а также файлы нелегального содержания!
cron