(Power Ballad) VA - Romantic Collection - Metal Ballads 2 - 2000, FLAC (image+.cue), lossless

 
 Статистика раздачи 
Размер: 548.78 МБ   |  Зарегистрирован: 07 окт 2014, 07:32   |   .torrent скачан: 5 раз
Сидеров: 1  [ 0 байт/сек ]     Личеров: 0  [ 0 байт/сек ]  
  

(Power Ballad) VA - Romantic Collection - Metal Ballads 2 - 2000, FLAC (image+.cue), lossless

Сообщение Thistoll » 07 окт 2014, 07:32

Various Artists - Romantic Collection - Metal Ballads 2

Жанр: Power Ballad
Год выпуска диска: 2000
Производитель диска: EU
Аудио кодек: FLAC
Тип рипа: image+.cue
Битрейт аудио: lossless
Продолжительность: 79:58
Трэклист:
01 - Janine (Kingdom Come) [4:30]
02 - Tears Of The Dragon (Bruce Dickinson) [6:24]
03 - House Of Broken Love (Great White) [6:06]
04 - Blood Of Heroes (Megadeth) [4:03]
05 - Until It Sleeps (Metallica) [4:33]
06 - Dich Zu Toten Fiel Mir Schwer (Lacrimosa) [8:00]
07 - Nightwing (Black Sabbath) [6:40]
08 - It's On! (Corn) [4:34]
09 - Janie's Got A Gun (Aerosmith) [5:40]
10 - Dogs Of War (Biohazard) [4:18]
11 - You're All I Need (Motley Crue) [4:40]
12 - Lord Of The Boards (Guano Apes) [3:46]
13 - You And I (Scorpions) [6:19]
14 - Golden Age (Kreator) [4:52]
15 - Givin' Yourself Away (Ratt) [5:32]

Доп. информация: Хорошо подобранные мелодические рок-металл-композиции. Наслаждайтесь.
Код: Выделить всё
Exact Audio Copy V0.99 prebeta 5 from 4. May 2009

Отчёт EAC об извлечении, выполненном 5. марта 2010, 20:43

Various / Romantic Collection - Metal Ballads 2

Дисковод: TEAC    CD-W548E   Adapter: 3  ID: 1

Режим чтения                 : Достоверность
Использование точного потока : Да
Отключение кэша аудио        : Да
Использование указателей C2  : Нет

Коррекция смещения при чтении                     : 12
Способность читать области Lead-in и Lead-out     : Нет
Заполнение пропущенных сэмплов тишиной            : Да
Удаление блоков с тишиной в начале и конце        : Нет
При вычислениях CRC использовались нулевые сэмплы : Да
Интерфейс                                         : Встроенный Win32-интерфейс для Win NT/2000

Выходной формат          : Пользовательский кодировщик
Выбранный битрейт        : 320 kBit/s
Качество                 : Высокий
Добавление ID3-тэга      : Да
Утилита сжатия           : C:\Program Files\FLAC\flac.exe
Дополнительные параметры : -8 -V %s

TOC извлечённого CD

     Трек |   Старт  | Длительность | Начальный сектор | Конечный сектор
    ---------------------------------------------------------------------
       1  |  0:00.00 |    4:29.45   |           0      |      20219
       2  |  4:29.45 |    6:24.15   |       20220      |      49034
       3  | 10:53.60 |    6:06.22   |       49035      |      76506
       4  | 17:00.07 |    4:03.12   |       76507      |      94743
       5  | 21:03.19 |    4:33.15   |       94744      |     115233
       6  | 25:36.34 |    8:00.34   |      115234      |     151267
       7  | 33:36.68 |    6:40.35   |      151268      |     181302
       8  | 40:17.28 |    4:34.01   |      181303      |     201853
       9  | 44:51.29 |    5:39.47   |      201854      |     227325
      10  | 50:31.01 |    4:17.40   |      227326      |     246640
      11  | 54:48.41 |    4:40.10   |      246641      |     267650
      12  | 59:28.51 |    3:46.18   |      267651      |     284618
      13  | 63:14.69 |    6:19.03   |      284619      |     313046
      14  | 69:33.72 |    4:52.31   |      313047      |     334977
      15  | 74:26.28 |    5:31.55   |      334978      |     359857

Характеристики диапазона извлечения и сообщения об ошибках

Выбранный диапазон

     Имя файла D:\MUSIC_[+]\!!FLAC\Romantic Collection - Metal Ballads 2 (2000)\Romantic Collection - Metal Ballads 2.wav

     Пиковый уровень 100.0 %
     Качество диапазона 100.0 %
     CRC теста F16E0F41
     CRC копии F16E0F41
     Копирование... OK

Ошибок не произошло

Конец отчёта
 
Не забывайте говорить Спасибо. Не уходите с раздачи!   
Торрент: Зарегистрирован [07 окт 2014, 07:32] Для скачивания .torrent
необходима регистрация
Или скачать с помощью
MediaGet
Статус:
Проверен
 
.torrent скачан: 5 раз
Хэш: 05ad6297a738c0bdb2ee1db03c83800fe2ad0218
Размер: 548.78 МБ (575 437 079 байт)
Стать Автором раздачи
 
 
Раздал: 6.67 ГБ
Скачал: 302.5 МБ
Ратио: 22.576
Сообщения: 374198
Зарегистрирован: 17 апр 2014, 11:05


  • Похожие торренты
    Ответы
    Просмотры
    Последнее сообщение

Вернуться в Сборники "Зарубежный Metal" (lossless)

Ресурс не предоставляет электронные версии произведений, а занимается лишь коллекционированием и каталогизацией ссылок, присылаемых и публикуемых на форуме нашими читателями. Если вы являетесь правообладателем какого-либо представленного материала и не желаете чтобы ссылка на него находилась в нашем каталоге, свяжитесь с нами и мы незамедлительно удалим её. Файлы для обмена на трекере предоставлены пользователями сайта, и администрация не несёт ответственности за их содержание. Просьба не заливать файлы, защищенные авторскими правами, а также файлы нелегального содержания!
cron