(Heavy Metal) Holy Dio - A tribute to the voice of metal: Ronnie James Dio (2CD) - 1999, FLAC (image+.cue), lossless

 
 Статистика раздачи 
Размер: 748.29 МБ   |  Зарегистрирован: 07 окт 2014, 07:33   |   .torrent скачан: 6 раз
Сидеров: 1  [ 0 байт/сек ]     Личеров: 0  [ 0 байт/сек ]  
  

(Heavy Metal) Holy Dio - A tribute to the voice of metal: Ronnie James Dio (2CD) - 1999, FLAC (image+.cue), lossless

Сообщение Thistoll » 07 окт 2014, 07:33

Holy Dio - A tribute to the voice of metal: Ronnie James Dio (2CD)

Жанр: Heavy Metal
Год выпуска диска: 1999
Производитель диска: Германия
Аудио кодек: FLAC
Тип рипа: image+.cue
Битрейт аудио: lossless
Продолжительность: 50:39, 48:55
Трэклист:

CD1:

1. Blind Guardian — Don’t Talk to Strangers / (Dio - Holy Diver, 1983)
2. Primal Fear - Kill The King / (Rainbow - Long Live Rock 'n' Roll, 1978)
3. Doro — Egypt (The Chains Are On) / (Dio - Last in Line, 1984)
4. Jag Panzer — Children Of The Sea / (Black Sabbath - Heaven And Hell, 1980)
5. Fates Warning — The Sign Of The Southern Cross / (Black Sabbath - Mob Rules, 1981)
6. Catch The Rainbow — Rainbow Eyes / (Rainbow - Long Live Rock 'n' Roll, 1978)
7. Gamma Ray — Long Live Rock 'n' Roll / (Rainbow - Long Live Rock 'n' Roll, 1978)
8. Dan Swano & Peter Tagtgren — Country Girl / (Black Sabbath - Mob Rules, 1981)
9. Yngwie Malmsteen — Gates Of Babylon / (Rainbow - Long Live Rock 'n' Roll, 1978)

CD2:

1. Grave Digger — We Rock / (Dio - Last in Line, 1984)
2. HammerFall — Man Of The Silver Mountain / (Rainbow - Ritchie Blackmore’s Rainbow, 1975)
3. Holy Mother — Holy Diver / (Dio - Holy Diver, 1983)
4. Stratovarius — Kill The King / (Rainbow - Long Live Rock 'n' Roll, 1978)
5. Axel Rudi Pell — Still I’m Sad / (Rainbow - Ritchie Blackmore’s Rainbow, 1975)
6. Enola Gay — Heaven And Hell / (Black Sabbath - Heaven And Hell, 1980)
7. Steel Prophet — Neon Knights / (Black Sabbath - Heaven And Hell, 1980)
8. Solitude Returnus — Shame On The Night / (Dio - Holy Diver, 1983)
9. Destiny’s End — The Last In Line / (Dio - Last in Line, 1984)
10. Angel Dust — Temple Of The King / (Rainbow - Ritchie Blackmore’s Rainbow, 1975)

Доп. информация:

Все сканы внутри.
Exact Audio Copy V0.99 prebeta 4 from 23. January 2008

Отчёт EAC об извлечении, выполненном 3. ноября 2008, 14:58

Various / Holy Dio [Disk 1]

Дисковод: Optiarc DVD RW AD-5200A Adapter: 0 ID: 0

Режим чтения : Достоверность
Использование точного потока : Да
Отключение кэша аудио : Да
Использование указателей C2 : Нет

Коррекция смещения при чтении : 48
Способность читать области Lead-in и Lead-out : Нет
Заполнение пропущенных сэмплов тишиной : Да
Удаление блоков с тишиной в начале и конце : Нет
При вычислениях CRC использовались нулевые сэмплы : Да
Интерфейс : Установленный внешний ASPI-интерфейс

Выходной формат : Внутренние WAV-операции
Формат сэмплов : 44.100 Гц; 16 бит; стерео

TOC извлечённого CD

Трек | Старт | Длительность | Начальный сектор | Конечный сектор
---------------------------------------------------------------------
1 | 0:00.00 | 4:48.74 | 0 | 21673
2 | 4:48.74 | 4:33.39 | 21674 | 42187
3 | 9:22.38 | 6:11.48 | 42188 | 70060
4 | 15:34.11 | 5:16.53 | 70061 | 93813
5 | 20:50.64 | 7:38.63 | 93814 | 128226
6 | 28:29.52 | 7:06.25 | 128227 | 160201
7 | 35:36.02 | 3:46.47 | 160202 | 177198
8 | 39:22.49 | 4:03.60 | 177199 | 195483
9 | 43:26.34 | 7:11.40 | 195484 | 227848

Характеристики диапазона извлечения и сообщения об ошибках

Выбранный диапазон

Имя файла E:\Torrents\Dio\Various - Holy Dio [Disk 1].wav

Пиковый уровень 100.0 %
Качество диапазона 100.0 %
CRC копии 537F3DF2
Копирование... OK

Ошибок не произошло

AccurateRip: сводка

Трек 1 точное извлечение (доверие 4) [BCFE6A53]
Трек 2 точное извлечение (доверие 4) [99F34DA2]
Трек 3 точное извлечение (доверие 4) [43A8A5C4]
Трек 4 точное извлечение (доверие 4) [89E63F03]
Трек 5 точное извлечение (доверие 4) [DA0FECD7]
Трек 6 точное извлечение (доверие 4) [D385EFF8]
Трек 7 точное извлечение (доверие 4) [BC0DFA1C]
Трек 8 точное извлечение (доверие 4) [439196A5]
Трек 9 точное извлечение (доверие 4) [F11DCB63]

Все треки извлечены точно

Конец отчёта
Exact Audio Copy V0.99 prebeta 4 from 23. January 2008

Отчёт EAC об извлечении, выполненном 3. ноября 2008, 15:17

Various / Holy Dio: Tribute to Ronnie James Dio [Disc 2]

Дисковод: Optiarc DVD RW AD-5200A Adapter: 0 ID: 0

Режим чтения : Достоверность
Использование точного потока : Да
Отключение кэша аудио : Да
Использование указателей C2 : Нет

Коррекция смещения при чтении : 48
Способность читать области Lead-in и Lead-out : Нет
Заполнение пропущенных сэмплов тишиной : Да
Удаление блоков с тишиной в начале и конце : Нет
При вычислениях CRC использовались нулевые сэмплы : Да
Интерфейс : Установленный внешний ASPI-интерфейс

Выходной формат : Внутренние WAV-операции
Формат сэмплов : 44.100 Гц; 16 бит; стерео

TOC извлечённого CD

Трек | Старт | Длительность | Начальный сектор | Конечный сектор
---------------------------------------------------------------------
1 | 0:00.00 | 4:14.32 | 0 | 19081
2 | 4:14.32 | 3:25.41 | 19082 | 34497
3 | 7:39.73 | 4:07.22 | 34498 | 53044
4 | 11:47.20 | 4:35.70 | 53045 | 73739
5 | 16:23.15 | 4:37.38 | 73740 | 94552
6 | 21:00.53 | 6:18.40 | 94553 | 122942
7 | 27:19.18 | 3:54.49 | 122943 | 140541
8 | 31:13.67 | 6:11.66 | 140542 | 168432
9 | 37:25.58 | 4:53.50 | 168433 | 190457
10 | 42:19.33 | 6:33.65 | 190458 | 219997

Характеристики диапазона извлечения и сообщения об ошибках

Выбранный диапазон

Имя файла E:\Torrents\Dio\Various - Holy Dio Tribute to Ronnie James Dio [Disc 2].wav

Пиковый уровень 100.0 %
Качество диапазона 100.0 %
CRC копии 5E39C6D4
Копирование... OK

Ошибок не произошло

AccurateRip: сводка

Трек 1 точное извлечение (доверие 4) [0CFCBAEC]
Трек 2 точное извлечение (доверие 4) [F900AB69]
Трек 3 точное извлечение (доверие 4) [47682FC4]
Трек 4 точное извлечение (доверие 4) [9D52D323]
Трек 5 точное извлечение (доверие 4) [F1D6EFA0]
Трек 6 точное извлечение (доверие 4) [183E0106]
Трек 7 точное извлечение (доверие 4) [D473A524]
Трек 8 точное извлечение (доверие 4) [0FF209C4]
Трек 9 точное извлечение (доверие 4) [8006AB1F]
Трек 10 точное извлечение (доверие 4) [54417B38]

Все треки извлечены точно

Конец отчёта
 
Не забывайте говорить Спасибо. Не уходите с раздачи!   
Торрент: Зарегистрирован [07 окт 2014, 07:33] Для скачивания .torrent
необходима регистрация
Или скачать с помощью
MediaGet
Статус:
Проверен
 
.torrent скачан: 6 раз
Хэш: a0a7e1d37941939634eb4647d27cbb90e6f07cb2
Размер: 748.29 МБ (784 642 950 байт)
Стать Автором раздачи
 
 
Раздал: 6.67 ГБ
Скачал: 302.5 МБ
Ратио: 22.576
Сообщения: 374198
Зарегистрирован: 17 апр 2014, 11:05


  • Похожие торренты
    Ответы
    Просмотры
    Последнее сообщение

Вернуться в Сборники "Зарубежный Metal" (lossless)

Ресурс не предоставляет электронные версии произведений, а занимается лишь коллекционированием и каталогизацией ссылок, присылаемых и публикуемых на форуме нашими читателями. Если вы являетесь правообладателем какого-либо представленного материала и не желаете чтобы ссылка на него находилась в нашем каталоге, свяжитесь с нами и мы незамедлительно удалим её. Файлы для обмена на трекере предоставлены пользователями сайта, и администрация не несёт ответственности за их содержание. Просьба не заливать файлы, защищенные авторскими правами, а также файлы нелегального содержания!
cron