(Heavy Metal, Power Metal, Progressive Metal) [CD] VA - Metal Hammer: Future Shock - 2014, FLAC (tracks+.cue), lossless

 
 Статистика раздачи 
Размер: 538.52 МБ   |  Зарегистрирован: 07 окт 2014, 07:39   |   .torrent скачан: 0 раз
Сидеров: 1  [ 0 байт/сек ]     Личеров: 0  [ 0 байт/сек ]  
  

(Heavy Metal, Power Metal, Progressive Metal) [CD] VA - Metal Hammer: Future Shock - 2014, FLAC (tracks+.cue), lossless

Сообщение Thistoll » 07 окт 2014, 07:39

Metal Hammer: Future Shock

Жанр: Heavy Metal, Power Metal, Progressive Metal
Носитель: CD
Страна-производитель диска: EU
Год издания: 2014
Издатель (лейбл): Metal Hammer Magazine
Номер по каталогу: MHR256CD1/05/14
Аудиокодек: FLAC (*.flac)
Тип рипа: tracks+.cue
Битрейт аудио: lossless
Продолжительность: 01:09:47
Источник (релизер): свой диск
Наличие сканов в содержимом раздачи: да
Треклист:

---------------------------------------------

01. Down - We Knew Him Well (4:06)
02. Rob Halford, Vinny Appice, Doug Aldrich, Jeff Pilson, Scott Warren - Man on the
Silver Mountain (5:19)
03. Cradle of Filth - Unbridled at Dusk (8:00)
04. Sabaton - To Hell and Back (3:25)
05. Triptykon - Breathing (5:48)
06. Miss May I - Refuse to Believe (3:56)
07. Animals as Leaders - Tooth and Claw (4:23)
08. Hellyeah - Cross to Bier (Cradle of Bones) (3:35)
09. Epica - The Essence of Silence (4:48)
10. Dyzen featuring Dan Tompkins and Gino Bambino - Digital Senseless (4:43)
11. Victorian Whore Dogs - Prayer of Dust (4:07)
12. Seven Deadly - Obliviation (3:28)
13. Falling Red - Disposable (3:49)
14. Order of Voices - Hand in Hand (3:59)
15. King Goat - Melian's Trance (6:15)


---------------------------------------------

сборник-приложение к 256-ому номеру журнала Metal Hammer

---------------------------------------------
Код: Выделить всё
Exact Audio Copy V1.0 beta 3 from 29. August 2011

EAC extraction logfile from 11. July 2014, 11:29

Variuos Artists / Future Shock

Used drive  : ATAPI   iHAS120   X   Adapter: 3  ID: 0

Read mode               : Secure
Utilize accurate stream : Yes
Defeat audio cache      : Yes
Make use of C2 pointers : No

Read offset correction                      : 48
Overread into Lead-In and Lead-Out          : No
Fill up missing offset samples with silence : Yes
Delete leading and trailing silent blocks   : No
Null samples used in CRC calculations       : Yes
Used interface                              : Native Win32 interface for Win NT & 2000
Gap handling                                : Appended to previous track

Used output format              : User Defined Encoder
Selected bitrate                : 128 kBit/s
Quality                         : High
Add ID3 tag                     : No
Command line compressor         : C:\Program Files (x86)\Exact Audio Copy\Flac\flac.exe
Additional command line options : -8 -V -T "ARTIST=%artist%" -T "TITLE=%title%" -T "ALBUM=%albumtitle%" -T "DATE=%year%" -T "TRACKNUMBER=%tracknr%" -T "TOTALTRACKS=%numtracks%" -T "GENRE=%genre%" -T "ALBUMARTIST=%albumartist%" -T "ALBUM ARTIST=%albumartist%" -T "COMMENT=EAC Secure Mode, Test & Copy, AccurateRip, FLAC -8" %source%

TOC of the extracted CD

     Track |   Start  |  Length  | Start sector | End sector
    ---------------------------------------------------------
        1  |  0:00.00 |  4:06.03 |         0    |    18452
        2  |  4:06.03 |  5:19.54 |     18453    |    42431
        3  |  9:25.57 |  8:00.10 |     42432    |    78441
        4  | 17:25.67 |  3:25.19 |     78442    |    93835
        5  | 20:51.11 |  5:48.74 |     93836    |   120009
        6  | 26:40.10 |  3:56.10 |    120010    |   137719
        7  | 30:36.20 |  4:23.20 |    137720    |   157464
        8  | 34:59.40 |  3:35.18 |    157465    |   173607
        9  | 38:34.58 |  4:48.24 |    173608    |   195231
       10  | 43:23.07 |  4:43.73 |    195232    |   216529
       11  | 48:07.05 |  4:07.73 |    216530    |   235127
       12  | 52:15.03 |  3:28.32 |    235128    |   250759
       13  | 55:43.35 |  3:49.01 |    250760    |   267935
       14  | 59:32.36 |  3:59.59 |    267936    |   285919
       15  | 63:32.20 |  6:15.37 |    285920    |   314081

Track  1

     Filename D:\[flac]\Future Shock\01 - Down - We Knew Him Well.wav

     Pre-gap length  0:00:02.00

     Peak level 99.9 %
     Extraction speed 3.3 X
     Track quality 99.9 %
     Test CRC 6C4AE648
     Copy CRC 6C4AE648
     Accurately ripped (confidence 2)  [1F12C8BA]  (AR v2)
     Copy OK

Track  2

     Filename D:\[flac]\Future Shock\02 - Rob Halford, Vinny Appice, Doug Aldrich, Jeff Pilson, Scott Warren - Man on the Silver Mountain.wav

     Pre-gap length  0:00:02.00

     Peak level 100.0 %
     Extraction speed 4.0 X
     Track quality 99.9 %
     Test CRC DD107E2A
     Copy CRC DD107E2A
     Accurately ripped (confidence 2)  [87EBB55E]  (AR v2)
     Copy OK

Track  3

     Filename D:\[flac]\Future Shock\03 - Cradle of Filth - Unbridled at Dusk.wav

     Pre-gap length  0:00:02.00

     Peak level 97.7 %
     Extraction speed 6.1 X
     Track quality 100.0 %
     Test CRC 1072DDBD
     Copy CRC 1072DDBD
     Accurately ripped (confidence 2)  [6907F3E9]  (AR v2)
     Copy OK

Track  4

     Filename D:\[flac]\Future Shock\04 - Sabaton - To Hell and Back.wav

     Pre-gap length  0:00:02.00

     Peak level 98.8 %
     Extraction speed 6.1 X
     Track quality 100.0 %
     Test CRC D9891A9A
     Copy CRC D9891A9A
     Accurately ripped (confidence 2)  [4FE6507E]  (AR v2)
     Copy OK

Track  5

     Filename D:\[flac]\Future Shock\05 - Triptykon - Breathing.wav

     Pre-gap length  0:00:02.00

     Peak level 97.7 %
     Extraction speed 6.9 X
     Track quality 100.0 %
     Test CRC 6EC1474A
     Copy CRC 6EC1474A
     Accurately ripped (confidence 2)  [CA25BC83]  (AR v2)
     Copy OK

Track  6

     Filename D:\[flac]\Future Shock\06 - Miss May I - Refuse to Believe.wav

     Pre-gap length  0:00:02.00

     Peak level 100.0 %
     Extraction speed 6.9 X
     Track quality 100.0 %
     Test CRC AE1D6C0F
     Copy CRC AE1D6C0F
     Accurately ripped (confidence 2)  [9227709E]  (AR v2)
     Copy OK

Track  7

     Filename D:\[flac]\Future Shock\07 - Animals as Leaders - Tooth and Claw.wav

     Pre-gap length  0:00:02.00

     Peak level 94.6 %
     Extraction speed 5.2 X
     Track quality 99.9 %
     Test CRC 1AD4A384
     Copy CRC 1AD4A384
     Accurately ripped (confidence 2)  [E8958C4A]  (AR v2)
     Copy OK

Track  8

     Filename D:\[flac]\Future Shock\08 - Hellyeah - Cross to Bier (Cradle of Bones).wav

     Pre-gap length  0:00:02.00

     Peak level 98.8 %
     Extraction speed 7.4 X
     Track quality 100.0 %
     Test CRC 53ADA908
     Copy CRC 53ADA908
     Accurately ripped (confidence 2)  [173C75A9]  (AR v2)
     Copy OK

Track  9

     Filename D:\[flac]\Future Shock\09 - Epica - The Essence of Silence.wav

     Pre-gap length  0:00:02.00

     Peak level 98.8 %
     Extraction speed 7.9 X
     Track quality 100.0 %
     Test CRC B0A09AFF
     Copy CRC B0A09AFF
     Accurately ripped (confidence 2)  [F3E096C2]  (AR v2)
     Copy OK

Track 10

     Filename D:\[flac]\Future Shock\10 - Dyzen featuring Dan Tompkins & Gino Bambino - Digital Senseless.wav

     Pre-gap length  0:00:01.74

     Peak level 100.0 %
     Extraction speed 8.2 X
     Track quality 100.0 %
     Test CRC 9A0FD242
     Copy CRC 9A0FD242
     Accurately ripped (confidence 2)  [B9B781FD]  (AR v2)
     Copy OK

Track 11

     Filename D:\[flac]\Future Shock\11 - Victorian Whore Dogs - Prayer of Dust.wav

     Pre-gap length  0:00:02.00

     Peak level 98.8 %
     Extraction speed 5.8 X
     Track quality 99.9 %
     Test CRC 20127747
     Copy CRC 20127747
     Accurately ripped (confidence 2)  [5563E5C2]  (AR v2)
     Copy OK

Track 12

     Filename D:\[flac]\Future Shock\12 - Seven Deadly - Obliviation.wav

     Pre-gap length  0:00:02.00

     Peak level 98.8 %
     Extraction speed 8.2 X
     Track quality 100.0 %
     Test CRC 3A5617A3
     Copy CRC 3A5617A3
     Accurately ripped (confidence 2)  [7B26AF7B]  (AR v2)
     Copy OK

Track 13

     Filename D:\[flac]\Future Shock\13 - Falling Red - Disposable.wav

     Pre-gap length  0:00:02.00

     Peak level 99.5 %
     Extraction speed 8.5 X
     Track quality 100.0 %
     Test CRC C8C5CCA1
     Copy CRC C8C5CCA1
     Accurately ripped (confidence 2)  [3222E4AE]  (AR v2)
     Copy OK

Track 14

     Filename D:\[flac]\Future Shock\14 - Order of Voices - Hand in Hand.wav

     Pre-gap length  0:00:02.00

     Peak level 99.9 %
     Extraction speed 8.7 X
     Track quality 100.0 %
     Test CRC D18FDA7A
     Copy CRC D18FDA7A
     Accurately ripped (confidence 2)  [3D13FA57]  (AR v2)
     Copy OK

Track 15

     Filename D:\[flac]\Future Shock\15 - King Goat - Melian's Trance.wav

     Pre-gap length  0:00:02.00

     Peak level 100.0 %
     Extraction speed 7.3 X
     Track quality 99.9 %
     Test CRC A6068210
     Copy CRC A6068210
     Accurately ripped (confidence 2)  [AC9B8C83]  (AR v2)
     Copy OK

All tracks accurately ripped

No errors occurred

End of status report

==== Log checksum CD8F6C5D79F8C1D848CCAAFF8C5F43A94FC990E99A3BDFA42E9B65D69DA210A9 ====
Код: Выделить всё
REM GENRE Metal
REM DATE 2014
REM DISCID CE105B0F
REM COMMENT "ExactAudioCopy v1.0b3"
PERFORMER "Variuos Artists"
TITLE "Future Shock"
FILE "01 - Down - We Knew Him Well.wav" WAVE
  TRACK 01 AUDIO
    TITLE "We Knew Him Well"
    PERFORMER "Down"
    INDEX 01 00:00:00
  TRACK 02 AUDIO
    TITLE "Man on the Silver Mountain"
    PERFORMER "Rob Halford, Vinny Appice, Doug Aldrich, Jeff Pilson, Scott Warren"
    INDEX 00 04:04:03
FILE "02 - Rob Halford, Vinny Appice, Doug Aldrich, Jeff Pilson, Scott Warren - Man on the Silver Mountain.wav" WAVE
    INDEX 01 00:00:00
  TRACK 03 AUDIO
    TITLE "Unbridled at Dusk"
    PERFORMER "Cradle of Filth"
    INDEX 00 05:17:54
FILE "03 - Cradle of Filth - Unbridled at Dusk.wav" WAVE
    INDEX 01 00:00:00
  TRACK 04 AUDIO
    TITLE "To Hell and Back"
    PERFORMER "Sabaton"
    INDEX 00 07:58:10
FILE "04 - Sabaton - To Hell and Back.wav" WAVE
    INDEX 01 00:00:00
  TRACK 05 AUDIO
    TITLE "Breathing"
    PERFORMER "Triptykon"
    INDEX 00 03:23:19
FILE "05 - Triptykon - Breathing.wav" WAVE
    INDEX 01 00:00:00
  TRACK 06 AUDIO
    TITLE "Refuse to Believe"
    PERFORMER "Miss May I"
    INDEX 00 05:46:74
FILE "06 - Miss May I - Refuse to Believe.wav" WAVE
    INDEX 01 00:00:00
  TRACK 07 AUDIO
    TITLE "Tooth and Claw"
    PERFORMER "Animals as Leaders"
    INDEX 00 03:54:10
FILE "07 - Animals as Leaders - Tooth and Claw.wav" WAVE
    INDEX 01 00:00:00
  TRACK 08 AUDIO
    TITLE "Cross to Bier (Cradle of Bones)"
    PERFORMER "Hellyeah"
    INDEX 00 04:21:20
FILE "08 - Hellyeah - Cross to Bier (Cradle of Bones).wav" WAVE
    INDEX 01 00:00:00
  TRACK 09 AUDIO
    TITLE "The Essence of Silence"
    PERFORMER "Epica"
    INDEX 00 03:33:18
FILE "09 - Epica - The Essence of Silence.wav" WAVE
    INDEX 01 00:00:00
  TRACK 10 AUDIO
    TITLE "Digital Senseless"
    PERFORMER "Dyzen featuring Dan Tompkins & Gino Bambino"
    INDEX 00 04:46:25
FILE "10 - Dyzen featuring Dan Tompkins & Gino Bambino - Digital Senseless.wav" WAVE
    INDEX 01 00:00:00
  TRACK 11 AUDIO
    TITLE "Prayer of Dust"
    PERFORMER "Victorian Whore Dogs"
    INDEX 00 04:41:73
FILE "11 - Victorian Whore Dogs - Prayer of Dust.wav" WAVE
    INDEX 01 00:00:00
  TRACK 12 AUDIO
    TITLE "Obliviation"
    PERFORMER "Seven Deadly"
    INDEX 00 04:05:73
FILE "12 - Seven Deadly - Obliviation.wav" WAVE
    INDEX 01 00:00:00
  TRACK 13 AUDIO
    TITLE "Disposable"
    PERFORMER "Falling Red"
    INDEX 00 03:26:32
FILE "13 - Falling Red - Disposable.wav" WAVE
    INDEX 01 00:00:00
  TRACK 14 AUDIO
    TITLE "Hand in Hand"
    PERFORMER "Order of Voices"
    INDEX 00 03:47:01
FILE "14 - Order of Voices - Hand in Hand.wav" WAVE
    INDEX 01 00:00:00
  TRACK 15 AUDIO
    TITLE "Melian's Trance"
    PERFORMER "King Goat"
    INDEX 00 03:57:59
FILE "15 - King Goat - Melian's Trance.wav" WAVE
    INDEX 01 00:00:00
 
Не забывайте говорить Спасибо. Не уходите с раздачи!   
Торрент: Зарегистрирован [07 окт 2014, 07:39] Для скачивания .torrent
необходима регистрация
Или скачать с помощью
MediaGet
Статус:
Проверен
 
.torrent скачан: 0 раз
Хэш: 01d0d5bfdc5a915bf87e42a7fd71eeb4aec9b58b
Размер: 538.52 МБ (564 680 114 байт)
Стать Автором раздачи
 
 
Раздал: 6.67 ГБ
Скачал: 302.5 МБ
Ратио: 22.576
Сообщения: 374198
Зарегистрирован: 17 апр 2014, 11:05


  • Похожие торренты
    Ответы
    Просмотры
    Последнее сообщение

Вернуться в Сборники "Зарубежный Metal" (lossless)

Ресурс не предоставляет электронные версии произведений, а занимается лишь коллекционированием и каталогизацией ссылок, присылаемых и публикуемых на форуме нашими читателями. Если вы являетесь правообладателем какого-либо представленного материала и не желаете чтобы ссылка на него находилась в нашем каталоге, свяжитесь с нами и мы незамедлительно удалим её. Файлы для обмена на трекере предоставлены пользователями сайта, и администрация не несёт ответственности за их содержание. Просьба не заливать файлы, защищенные авторскими правами, а также файлы нелегального содержания!
cron