(True Black Metal) VA - VA (Drakkar Prod.) - VA (Drakkar Prod.) - The Return of Darkness & Hate - 2001, FLAC (image+.cue) lossless

 
 Статистика раздачи 
Размер: 583.82 МБ   |  Зарегистрирован: 07 окт 2014, 07:40   |   .torrent скачан: 0 раз
Сидеров: 1  [ 0 байт/сек ]     Личеров: 0  [ 0 байт/сек ]  
  

(True Black Metal) VA - VA (Drakkar Prod.) - VA (Drakkar Prod.) - The Return of Darkness & Hate - 2001, FLAC (image+.cue) lossless

Сообщение Thistoll » 07 окт 2014, 07:40

VA (Drakkar Prod.) - The Return of Darkness & Hate
Жанр: True Black Metal
Год издания диска: 2001
Издатель (лейбл): Drakkar Prod.
Номер по каталогу: DK CD 010
Аудио кодек: FLAC (*.flac)
Тип рипа: image+.cue
Битрейт аудио: lossless
Продолжительность: 73:22
Источник (релизер): original CD
Наличие сканов в содержимом раздачи: да
Треклист:
1.Anatomy
2.Celestia
3.Count Nosferatu
4.Unpure.
5.Impiety
6.Sabbat
7.Mutiilation
8.Demon Realm
9.Nebular Mystic
10.Temple Of Baal
11.Garwall
12.Magane
13.Cursed
14.Grimlord
15.Nebiros
Код: Выделить всё
Exact Audio Copy V0.99 prebeta 5 from 4. May 2009

Отчёт EAC об извлечении, выполненном 27. февраля 2011, 12:02

Drakkar / The Return of Darkness & Hate

Дисковод: Optiarc DVD RW AD-5240S   Adapter: 3  ID: 0

Режим чтения                 : Достоверность
Использование точного потока : Да
Отключение кэша аудио        : Да
Использование указателей C2  : Нет

Коррекция смещения при чтении                     : 48
Способность читать области Lead-in и Lead-out     : Нет
Заполнение пропущенных сэмплов тишиной            : Да
Удаление блоков с тишиной в начале и конце        : Нет
При вычислениях CRC использовались нулевые сэмплы : Да
Интерфейс                                         : Установленный внешний ASPI-интерфейс

Выходной формат          : Пользовательский кодировщик
Выбранный битрейт        : 768 kBit/s
Качество                 : Высокий
Добавление ID3-тэга      : Нет
Утилита сжатия           : C:\Program Files\Exact Audio Copy\FLAC\FLAC.EXE
Дополнительные параметры : -6 -V -T "ARTIST=%a" -T "TITLE=%t" -T "ALBUM=%g" -T "DATE=%y" -T "TRACKNUMBER=%n" -T "GENRE=%m" -T "COMMENT=%e" %s -o %d

TOC извлечённого CD

     Трек |   Старт  | Длительность | Начальный сектор | Конечный сектор
    ---------------------------------------------------------------------
       1  |  0:00.00 |    4:07.58   |           0      |      18582
       2  |  4:07.58 |    2:55.11   |       18583      |      31718
       3  |  7:02.69 |    5:37.46   |       31719      |      57039
       4  | 12:40.40 |    4:11.49   |       57040      |      75913
       5  | 16:52.14 |    4:16.20   |       75914      |      95133
       6  | 21:08.34 |    5:28.13   |       95134      |     119746
       7  | 26:36.47 |    4:27.21   |      119747      |     139792
       8  | 31:03.68 |    4:43.41   |      139793      |     161058
       9  | 35:47.34 |    7:18.58   |      161059      |     193966
      10  | 43:06.17 |    3:48.74   |      193967      |     211140
      11  | 46:55.16 |    5:01.39   |      211141      |     233754
      12  | 51:56.55 |    6:13.57   |      233755      |     261786
      13  | 58:10.37 |    4:50.07   |      261787      |     283543
      14  | 63:00.44 |    5:21.39   |      283544      |     307657
      15  | 68:22.08 |    4:59.68   |      307658      |     330150

Характеристики диапазона извлечения и сообщения об ошибках

Выбранный диапазон

     Имя файла F:\ЯОБРАЗА\Drakkar - The Return of Darkness & Hate.wav

     Пиковый уровень 99.7 %
     Качество диапазона 100.0 %
     CRC теста 102AE051
     CRC копии 102AE051
     Копирование... OK

Ошибок не произошло

AccurateRip: сводка

Трек  1  точное извлечение (доверие 1)  [587785D3]
Трек  2  точное извлечение (доверие 1)  [7FAD962B]
Трек  3  точное извлечение (доверие 1)  [8289373D]
Трек  4  точное извлечение (доверие 1)  [2FD1796B]
Трек  5  точное извлечение (доверие 1)  [9F3BE600]
Трек  6  точное извлечение (доверие 1)  [4F54DE1A]
Трек  7  точное извлечение (доверие 1)  [9B4B4950]
Трек  8  точное извлечение (доверие 1)  [57C9C32E]
Трек  9  точное извлечение (доверие 1)  [3E91282E]
Трек 10  точное извлечение (доверие 1)  [1C46B62B]
Трек 11  точное извлечение (доверие 1)  [FE72C832]
Трек 12  точное извлечение (доверие 1)  [19652F99]
Трек 13  точное извлечение (доверие 1)  [3C854661]
Трек 14  точное извлечение (доверие 1)  [7DED928C]
Трек 15  точное извлечение (доверие 1)  [6E9EA912]

Все треки извлечены точно

Конец отчёта
Доп. информация: Перечислил суть смертей своих Drakkar - святошам покорёжит слух этот кошмар...
Ни одна из представленных на сборнике композиций ранее не реализовывалась


Download
Скачать .torrent файл
  ·  
Сайт не распространяет и не хранит электронные версии произведений, а лишь предоставляет доступ к создаваемому пользователями каталогу ссылок на торрент-файлы, которые содержат только списки хеш-сумм
 
KIILLSS
 
Не забывайте говорить Спасибо. Не уходите с раздачи!   
Торрент: Зарегистрирован [07 окт 2014, 07:40] Для скачивания .torrent
необходима регистрация
Или скачать с помощью
MediaGet
Статус:
Проверен
 
.torrent скачан: 0 раз
Хэш: 3debc752dc17a687d96b0b19ed12aa0c9c47e1e6
Размер: 583.82 МБ (612 182 211 байт)
Стать Автором раздачи
 
 
Раздал: 6.67 ГБ
Скачал: 302.5 МБ
Ратио: 22.576
Сообщения: 374198
Зарегистрирован: 17 апр 2014, 11:05


  • Похожие торренты
    Ответы
    Просмотры
    Последнее сообщение

Вернуться в Сборники "Зарубежный Metal" (lossless)

Ресурс не предоставляет электронные версии произведений, а занимается лишь коллекционированием и каталогизацией ссылок, присылаемых и публикуемых на форуме нашими читателями. Если вы являетесь правообладателем какого-либо представленного материала и не желаете чтобы ссылка на него находилась в нашем каталоге, свяжитесь с нами и мы незамедлительно удалим её. Файлы для обмена на трекере предоставлены пользователями сайта, и администрация не несёт ответственности за их содержание. Просьба не заливать файлы, защищенные авторскими правами, а также файлы нелегального содержания!
cron