(Death Metal, Black Metal, Doom, Pagan) VA - Legend Of A Madman - A Tribute To Ozzy Osbourne - 1998, FLAC (tracks) lossless

 
 Статистика раздачи 
Размер: 376.79 МБ   |  Зарегистрирован: 07 окт 2014, 07:40   |   .torrent скачан: 0 раз
Сидеров: 1  [ 0 байт/сек ]     Личеров: 0  [ 0 байт/сек ]  
  

(Death Metal, Black Metal, Doom, Pagan) VA - Legend Of A Madman - A Tribute To Ozzy Osbourne - 1998, FLAC (tracks) lossless

Сообщение Thistoll » 07 окт 2014, 07:40

Various Artists - Legend Of A Madman - A Tribute To Ozzy Osbourne

Жанр: Death Metal, Black Metal, Doom, Pagan
Страна-производитель диска: U.S.A.
Год издания диска: 1998
Издатель (лейбл): Olympic Recordings
Номер по каталогу: 008 633 137-2
Страна: U.S.A.
Аудио кодек: FLAC (*.flac)
Тип рипа: tracks
Битрейт аудио: lossless
Продолжительность: 53:13
Источник (релизер): собственный диск
Наличие сканов в содержимом раздачи: да
Треклист:
01 SOLITUDE AETURNUS - No More Tears 6:38
02 OBLIVEON - Suicide Solution 3:50
03 LOS GUSANOS - No Bone Movies 3:33
04 OPPRESSOR - Over The Mountain 4:32
05 NOVEMBER'S DOOM - Revelation (Mother Earth) 6:03
06 SOULSTORM - Mr. Crowley 4:29
07 LETHAL - S.A.T.O. 4:11
08 MORTA SKULD - Believer 5:10
09 SYRIS - Crazy Train 5:08
10 FILTHBOY - The Ultimate Sin 4:32
11 DISTORTED RAGE - I Don't Know 5:07
Код: Выделить всё
Exact Audio Copy V0.99 prebeta 5 from 4. May 2009

EAC extraction logfile from 11. December 2009, 14:12

Various / Legend Of A Madman - A Tribute...

Used drive  : _NEC    DVD_RW ND-4550A   Adapter: 0  ID: 1

Read mode               : Secure
Utilize accurate stream : Yes
Defeat audio cache      : Yes
Make use of C2 pointers : No

Read offset correction                      : 48
Overread into Lead-In and Lead-Out          : No
Fill up missing offset samples with silence : Yes
Delete leading and trailing silent blocks   : No
Null samples used in CRC calculations       : Yes
Used interface                              : Native Win32 interface for Win NT & 2000
Gap handling                                : Appended to previous track

Used output format              : User Defined Encoder
Selected bitrate                : 128 kBit/s
Quality                         : High
Add ID3 tag                     : No
Command line compressor         : C:\Program Files\Exact Audio Copy\Flac\flac.exe
Additional command line options : -8 -V -T "ARTIST=%a" -T "TITLE=%t" -T "ALBUM=%g" -T "DATE=%y" -T "TRACKNUMBER=%n" -T "GENRE=%m" -T "COMMENT=EAC FLAC -8" %s

TOC of the extracted CD

     Track |   Start  |  Length  | Start sector | End sector
    ---------------------------------------------------------
        1  |  0:00.00 |  6:37.43 |         0    |    29817
        2  |  6:37.43 |  3:50.16 |     29818    |    47083
        3  | 10:27.59 |  3:33.43 |     47084    |    63101
        4  | 14:01.27 |  4:31.71 |     63102    |    83497
        5  | 18:33.23 |  6:03.02 |     83498    |   110724
        6  | 24:36.25 |  4:29.24 |    110725    |   130923
        7  | 29:05.49 |  4:10.68 |    130924    |   149741
        8  | 33:16.42 |  5:10.13 |    149742    |   173004
        9  | 38:26.55 |  5:08.28 |    173005    |   196132
       10  | 43:35.08 |  4:32.41 |    196133    |   216573
       11  | 48:07.49 |  5:06.73 |    216574    |   239596

Track  1

     Filename D:\Music\lossless\Ozzy Osbourne\1998 Legend Of A Madman - A Tribute\01. SOLITUDE AETURNUS - No More Tears.wav

     Pre-gap length  0:00:02.00

     Peak level 100.0 %
     Track quality 100.0 %
     Test CRC A5D5B4B6
     Copy CRC A5D5B4B6
     Track not present in AccurateRip database
     Copy OK

Track  2

     Filename D:\Music\lossless\Ozzy Osbourne\1998 Legend Of A Madman - A Tribute\02. OBLIVEON - Suicide Solution.wav

     Peak level 100.0 %
     Track quality 100.0 %
     Test CRC 2D76012E
     Copy CRC 2D76012E
     Track not present in AccurateRip database
     Copy OK

Track  3

     Filename D:\Music\lossless\Ozzy Osbourne\1998 Legend Of A Madman - A Tribute\03. LOS GUSANOS - No Bone Movies.wav

     Peak level 100.0 %
     Track quality 100.0 %
     Test CRC AEA30DE0
     Copy CRC AEA30DE0
     Track not present in AccurateRip database
     Copy OK

Track  4

     Filename D:\Music\lossless\Ozzy Osbourne\1998 Legend Of A Madman - A Tribute\04. OPPRESSOR - Over The Mountain.wav

     Peak level 100.0 %
     Track quality 99.9 %
     Test CRC 8E8C38CD
     Copy CRC 8E8C38CD
     Track not present in AccurateRip database
     Copy OK

Track  5

     Filename D:\Music\lossless\Ozzy Osbourne\1998 Legend Of A Madman - A Tribute\05. NOVEMBERS DOOM - Revelation (Mother Earth).wav

     Peak level 100.0 %
     Track quality 100.0 %
     Test CRC D7340120
     Copy CRC D7340120
     Track not present in AccurateRip database
     Copy OK

Track  6

     Filename D:\Music\lossless\Ozzy Osbourne\1998 Legend Of A Madman - A Tribute\06. SOULSTORM - Mr. Crowley.wav

     Peak level 100.0 %
     Track quality 99.9 %
     Test CRC DB59FD4E
     Copy CRC DB59FD4E
     Track not present in AccurateRip database
     Copy OK

Track  7

     Filename D:\Music\lossless\Ozzy Osbourne\1998 Legend Of A Madman - A Tribute\07. LETHAL - S.A.T.O..wav

     Peak level 100.0 %
     Track quality 100.0 %
     Test CRC 2C581875
     Copy CRC 2C581875
     Track not present in AccurateRip database
     Copy OK

Track  8

     Filename D:\Music\lossless\Ozzy Osbourne\1998 Legend Of A Madman - A Tribute\08. MORTA SKULD - Believer.wav

     Peak level 100.0 %
     Track quality 100.0 %
     Test CRC 45122C9C
     Copy CRC 45122C9C
     Track not present in AccurateRip database
     Copy OK

Track  9

     Filename D:\Music\lossless\Ozzy Osbourne\1998 Legend Of A Madman - A Tribute\09. SYRIS - Crazy Train.wav

     Peak level 100.0 %
     Track quality 100.0 %
     Test CRC D8BB32A4
     Copy CRC D8BB32A4
     Track not present in AccurateRip database
     Copy OK

Track 10

     Filename D:\Music\lossless\Ozzy Osbourne\1998 Legend Of A Madman - A Tribute\10. FILTHBOY - Ultimate Sin.wav

     Peak level 100.0 %
     Track quality 100.0 %
     Test CRC 1E3DEF52
     Copy CRC 1E3DEF52
     Track not present in AccurateRip database
     Copy OK

Track 11

     Filename D:\Music\lossless\Ozzy Osbourne\1998 Legend Of A Madman - A Tribute\11. DISTORTED RAGE - I Don't Know.wav

     Peak level 100.0 %
     Track quality 100.0 %
     Test CRC 490A5F79
     Copy CRC 490A5F79
     Track not present in AccurateRip database
     Copy OK

None of the tracks are present in the AccurateRip database

No errors occurred

End of status report


Download
Скачать .torrent файл
  ·  
Сайт не распространяет и не хранит электронные версии произведений, а лишь предоставляет доступ к создаваемому пользователями каталогу ссылок на торрент-файлы, которые содержат только списки хеш-сумм
 
profanatic
 
Не забывайте говорить Спасибо. Не уходите с раздачи!   
Торрент: Зарегистрирован [07 окт 2014, 07:40] Для скачивания .torrent
необходима регистрация
Или скачать с помощью
MediaGet
Статус:
Проверен
 
.torrent скачан: 0 раз
Хэш: fa4e58c23c3e7dfb1ebbb5e65ef11d312c3b20a8
Размер: 376.79 МБ (395 097 341 байт)
Стать Автором раздачи
 
 
Раздал: 6.67 ГБ
Скачал: 302.5 МБ
Ратио: 22.576
Сообщения: 374198
Зарегистрирован: 17 апр 2014, 11:05


  • Похожие торренты
    Ответы
    Просмотры
    Последнее сообщение

Вернуться в Сборники "Зарубежный Metal" (lossless)

Ресурс не предоставляет электронные версии произведений, а занимается лишь коллекционированием и каталогизацией ссылок, присылаемых и публикуемых на форуме нашими читателями. Если вы являетесь правообладателем какого-либо представленного материала и не желаете чтобы ссылка на него находилась в нашем каталоге, свяжитесь с нами и мы незамедлительно удалим её. Файлы для обмена на трекере предоставлены пользователями сайта, и администрация не несёт ответственности за их содержание. Просьба не заливать файлы, защищенные авторскими правами, а также файлы нелегального содержания!
cron