(Death Metal) Tyrants From The Abyss (A Tribute To Morbid Angel) - 2002, FLAC (tracks+.cue), lossless

 
 Статистика раздачи 
Размер: 384.09 МБ   |  Зарегистрирован: 07 окт 2014, 07:41   |   .torrent скачан: 0 раз
Сидеров: 1  [ 0 байт/сек ]     Личеров: 0  [ 0 байт/сек ]  
  

(Death Metal) Tyrants From The Abyss (A Tribute To Morbid Angel) - 2002, FLAC (tracks+.cue), lossless

Сообщение Thistoll » 07 окт 2014, 07:41

Tyrants From The Abyss (A Tribute To Morbid Angel)

Жанр: Death Metal
Год выпуска диска: 2002
Производитель диска: Швеция
Аудио кодек: FLAC
Тип рипа: tracks+.cue
Битрейт аудио: lossless
Продолжительность: 49:07

Трэклист:
01. Zyklon — Dominate
02. Luciferion — Brainstorm
03. Vader — Immortal Rites
04. Infernal — Bleed for the Devil
05. Angelcorpse — Demon Seed
06. Soulreaper — Fall from Grace
07. Centurian — Blasphemy
08. Throneaeon — The Lions Den
09. In Aeternum — Maze of Torment
10. Excommunion — God of Emptiness
11. Diabolic — Visions from the Darkside
12. Divine Rapture — World of Shit (The Promised Land)
13. Krisiun — Unholy Blasphemies
14. Behemoth — Day of Suffering

Доп. информация: :megapray:
X Lossless Decoder version 20090320 (105.1)

XLD extraction logfile from 2009-07-15 01:03:10 +0700

Various Artists / Tyrants From The Abyss (A Tribute To Morbid Angel)

Used drive : MATSHITA DVD-R UJ-868 (revision KA14)

Use cdparanoia mode : YES (CDParanoia III 10.2 engine)
Disable audio cache : OK for the drive with cache less than 2750KB
Make use of C2 pointers : NO
Read offset correction : 102
Max retry count : 100

TOC of the extracted CD
Track | Start | Length | Start sector | End sector
---------------------------------------------------------
1 | 00:00:00 | 02:33:36 | 0 | 11510
2 | 02:33:36 | 02:55:37 | 11511 | 24672
3 | 05:28:73 | 03:58:55 | 24673 | 42577
4 | 09:27:53 | 02:19:30 | 42578 | 53032
5 | 11:47:08 | 02:14:58 | 53033 | 63140
6 | 14:01:66 | 05:06:13 | 63141 | 86103
7 | 19:08:04 | 02:59:13 | 86104 | 99541
8 | 22:07:17 | 05:01:68 | 99542 | 122184
9 | 27:09:10 | 04:24:66 | 122185 | 142050
10 | 31:34:01 | 05:59:07 | 142051 | 168982
11 | 37:33:08 | 04:02:59 | 168983 | 187191
12 | 41:35:67 | 03:14:74 | 187192 | 201815
13 | 44:50:66 | 02:07:35 | 201816 | 211375
14 | 46:58:26 | 02:08:57 | 211376 | 221032

Track 01
Filename : /Users/kirill/Music/A Tribute To Morbid Angel/01 - Dominate.flac

CRC32 hash (test run) : 1906ED4F
CRC32 hash : 1906ED4F
CRC32 hash (skip zero) : 8B9907FD
AccurateRip signature : AA7CCD94
->Track not present in AccurateRip database.
Statistics
Read error : 0
Skipped (treated as error) : 0
Edge jitter error (maybe fixed) : 0
Atom jitter error (maybe fixed) : 0
Drift error (maybe fixed) : 0
Dropped bytes error (maybe fixed) : 0
Duplicated bytes error (maybe fixed) : 0
Inconsistency in error sectors : 0

Track 02
Filename : /Users/kirill/Music/A Tribute To Morbid Angel/02 - Brainstorm.flac

CRC32 hash (test run) : 03A857DA
CRC32 hash : 03A857DA
CRC32 hash (skip zero) : AAA8609C
AccurateRip signature : 9B66C56B
->Track not present in AccurateRip database.
Statistics
Read error : 0
Skipped (treated as error) : 0
Edge jitter error (maybe fixed) : 0
Atom jitter error (maybe fixed) : 0
Drift error (maybe fixed) : 0
Dropped bytes error (maybe fixed) : 0
Duplicated bytes error (maybe fixed) : 0
Inconsistency in error sectors : 0

Track 03
Filename : /Users/kirill/Music/A Tribute To Morbid Angel/03 - Immortal Rites.flac

CRC32 hash (test run) : 567AF840
CRC32 hash : 567AF840
CRC32 hash (skip zero) : 1A49B6E8
AccurateRip signature : BD51A2F1
->Track not present in AccurateRip database.
Statistics
Read error : 0
Skipped (treated as error) : 0
Edge jitter error (maybe fixed) : 0
Atom jitter error (maybe fixed) : 0
Drift error (maybe fixed) : 0
Dropped bytes error (maybe fixed) : 0
Duplicated bytes error (maybe fixed) : 0
Inconsistency in error sectors : 0

Track 04
Filename : /Users/kirill/Music/A Tribute To Morbid Angel/04 - Bleed for the Devil.flac

CRC32 hash (test run) : 47F02A70
CRC32 hash : 47F02A70
CRC32 hash (skip zero) : A9707FA8
AccurateRip signature : 5F97CE20
->Track not present in AccurateRip database.
Statistics
Read error : 0
Skipped (treated as error) : 0
Edge jitter error (maybe fixed) : 0
Atom jitter error (maybe fixed) : 0
Drift error (maybe fixed) : 0
Dropped bytes error (maybe fixed) : 0
Duplicated bytes error (maybe fixed) : 0
Inconsistency in error sectors : 0

Track 05
Filename : /Users/kirill/Music/A Tribute To Morbid Angel/05 - Demon Seed.flac

CRC32 hash (test run) : 51892CD2
CRC32 hash : 51892CD2
CRC32 hash (skip zero) : 351411F0
AccurateRip signature : 3B9D06DB
->Track not present in AccurateRip database.
Statistics
Read error : 0
Skipped (treated as error) : 0
Edge jitter error (maybe fixed) : 0
Atom jitter error (maybe fixed) : 0
Drift error (maybe fixed) : 0
Dropped bytes error (maybe fixed) : 0
Duplicated bytes error (maybe fixed) : 0
Inconsistency in error sectors : 0

Track 06
Filename : /Users/kirill/Music/A Tribute To Morbid Angel/06 - Fall from Grace.flac

CRC32 hash (test run) : B2E5E82A
CRC32 hash : B2E5E82A
CRC32 hash (skip zero) : 37C44C11
AccurateRip signature : 1A920278
->Track not present in AccurateRip database.
Statistics
Read error : 0
Skipped (treated as error) : 0
Edge jitter error (maybe fixed) : 0
Atom jitter error (maybe fixed) : 0
Drift error (maybe fixed) : 0
Dropped bytes error (maybe fixed) : 0
Duplicated bytes error (maybe fixed) : 0
Inconsistency in error sectors : 0

Track 07
Filename : /Users/kirill/Music/A Tribute To Morbid Angel/07 - Blasphemy.flac

CRC32 hash (test run) : EBA265D6
CRC32 hash : EBA265D6
CRC32 hash (skip zero) : 06931E19
AccurateRip signature : 96897192
->Track not present in AccurateRip database.
Statistics
Read error : 0
Skipped (treated as error) : 0
Edge jitter error (maybe fixed) : 0
Atom jitter error (maybe fixed) : 0
Drift error (maybe fixed) : 0
Dropped bytes error (maybe fixed) : 0
Duplicated bytes error (maybe fixed) : 0
Inconsistency in error sectors : 0

Track 08
Filename : /Users/kirill/Music/A Tribute To Morbid Angel/08 - The Lions Den.flac

CRC32 hash (test run) : 31917FAA
CRC32 hash : 31917FAA
CRC32 hash (skip zero) : DBF2EC44
AccurateRip signature : 83438F93
->Track not present in AccurateRip database.
Statistics
Read error : 0
Skipped (treated as error) : 0
Edge jitter error (maybe fixed) : 0
Atom jitter error (maybe fixed) : 0
Drift error (maybe fixed) : 0
Dropped bytes error (maybe fixed) : 0
Duplicated bytes error (maybe fixed) : 0
Inconsistency in error sectors : 0

Track 09
Filename : /Users/kirill/Music/A Tribute To Morbid Angel/09 - Maze of Torment.flac

CRC32 hash (test run) : 1FB12BC1
CRC32 hash : 1FB12BC1
CRC32 hash (skip zero) : 8C78D28B
AccurateRip signature : F6BA9639
->Track not present in AccurateRip database.
Statistics
Read error : 0
Skipped (treated as error) : 0
Edge jitter error (maybe fixed) : 0
Atom jitter error (maybe fixed) : 0
Drift error (maybe fixed) : 0
Dropped bytes error (maybe fixed) : 0
Duplicated bytes error (maybe fixed) : 0
Inconsistency in error sectors : 0

Track 10
Filename : /Users/kirill/Music/A Tribute To Morbid Angel/10 - God of Emptiness.flac

CRC32 hash (test run) : DD812106
CRC32 hash : DD812106
CRC32 hash (skip zero) : 0F651645
AccurateRip signature : 322EFEDD
->Track not present in AccurateRip database.
Statistics
Read error : 0
Skipped (treated as error) : 0
Edge jitter error (maybe fixed) : 0
Atom jitter error (maybe fixed) : 0
Drift error (maybe fixed) : 0
Dropped bytes error (maybe fixed) : 0
Duplicated bytes error (maybe fixed) : 0
Inconsistency in error sectors : 0

Track 11
Filename : /Users/kirill/Music/A Tribute To Morbid Angel/11 - Visions from the Darkside.flac

CRC32 hash (test run) : 05CBE5FA
CRC32 hash : 05CBE5FA
CRC32 hash (skip zero) : 248D8ABB
AccurateRip signature : 41A80CD5
->Track not present in AccurateRip database.
Statistics
Read error : 0
Skipped (treated as error) : 0
Edge jitter error (maybe fixed) : 0
Atom jitter error (maybe fixed) : 0
Drift error (maybe fixed) : 0
Dropped bytes error (maybe fixed) : 0
Duplicated bytes error (maybe fixed) : 0
Inconsistency in error sectors : 0

Track 12
Filename : /Users/kirill/Music/A Tribute To Morbid Angel/12 - World of Shit (The Promised Land).flac

CRC32 hash (test run) : 6C2F9E4D
CRC32 hash : 6C2F9E4D
CRC32 hash (skip zero) : 98D60079
AccurateRip signature : 6558F56E
->Track not present in AccurateRip database.
Statistics
Read error : 0
Skipped (treated as error) : 0
Edge jitter error (maybe fixed) : 0
Atom jitter error (maybe fixed) : 0
Drift error (maybe fixed) : 0
Dropped bytes error (maybe fixed) : 0
Duplicated bytes error (maybe fixed) : 0
Inconsistency in error sectors : 0

Track 13
Filename : /Users/kirill/Music/A Tribute To Morbid Angel/13 - Unholy Blasphemies.flac

CRC32 hash (test run) : 8A7BF475
CRC32 hash : 8A7BF475
CRC32 hash (skip zero) : 643E7972
AccurateRip signature : 258881D1
->Track not present in AccurateRip database.
Statistics
Read error : 0
Skipped (treated as error) : 0
Edge jitter error (maybe fixed) : 0
Atom jitter error (maybe fixed) : 0
Drift error (maybe fixed) : 0
Dropped bytes error (maybe fixed) : 0
Duplicated bytes error (maybe fixed) : 0
Inconsistency in error sectors : 0

Track 14
Filename : /Users/kirill/Music/A Tribute To Morbid Angel/14 - Day of Suffering.flac

CRC32 hash (test run) : 8424C497
CRC32 hash : 8424C497
CRC32 hash (skip zero) : 48021F55
AccurateRip signature : AAD981E0
->Track not present in AccurateRip database.
Statistics
Read error : 0
Skipped (treated as error) : 0
Edge jitter error (maybe fixed) : 0
Atom jitter error (maybe fixed) : 0
Drift error (maybe fixed) : 0
Dropped bytes error (maybe fixed) : 0
Duplicated bytes error (maybe fixed) : 0
Inconsistency in error sectors : 0

No errors occurred

End of status report
 
Не забывайте говорить Спасибо. Не уходите с раздачи!   
Торрент: Зарегистрирован [07 окт 2014, 07:41] Для скачивания .torrent
необходима регистрация
Или скачать с помощью
MediaGet
Статус:
Проверен
 
.torrent скачан: 0 раз
Хэш: 693cc36e58be8559e9162503d7a78404d164fe75
Размер: 384.09 МБ (402 752 656 байт)
Стать Автором раздачи
 
 
Раздал: 6.67 ГБ
Скачал: 302.5 МБ
Ратио: 22.576
Сообщения: 374198
Зарегистрирован: 17 апр 2014, 11:05


  • Похожие торренты
    Ответы
    Просмотры
    Последнее сообщение

Вернуться в Сборники "Зарубежный Metal" (lossless)

Ресурс не предоставляет электронные версии произведений, а занимается лишь коллекционированием и каталогизацией ссылок, присылаемых и публикуемых на форуме нашими читателями. Если вы являетесь правообладателем какого-либо представленного материала и не желаете чтобы ссылка на него находилась в нашем каталоге, свяжитесь с нами и мы незамедлительно удалим её. Файлы для обмена на трекере предоставлены пользователями сайта, и администрация не несёт ответственности за их содержание. Просьба не заливать файлы, защищенные авторскими правами, а также файлы нелегального содержания!
cron