(Heavy Metal) VA - A Tribute To Accept Vol.1 - 1999, FLAC (image+.cue), lossless

 
 Статистика раздачи 
Размер: 654.35 МБ   |  Зарегистрирован: 07 окт 2014, 07:42   |   .torrent скачан: 0 раз
Сидеров: 1  [ 0 байт/сек ]     Личеров: 0  [ 0 байт/сек ]  
  

(Heavy Metal) VA - A Tribute To Accept Vol.1 - 1999, FLAC (image+.cue), lossless

Сообщение Thistoll » 07 окт 2014, 07:42

A Tribute To Accept Vol.1

Жанр: Heavy Metal
Страна-производитель диска: Russia
Год издания: 1999
Издатель (лейбл): Irond
Номер по каталогу: CD 04-928
Аудиокодек: FLAC (*.flac)
Тип рипа: image+.cue
Битрейт аудио: lossless
Продолжительность: 01:18:29
Источник (релизер): Scullplug
Наличие сканов в содержимом раздачи: да

Треклист:
01. Sinner - Balls To The Wall
02. Hammerfall - Head Over Heels
03. Tankard - Son Of A Bitch
04. Steel Prophet - Fast As A Shark
05. Sodom - I'm A Rebel
06. Primal Fear - Breaker
07. Atrocity - Shake Your Heads
08. Axxis - Flash Rockin Man
09. Grave Digger - Starlight
10. Seven Witches - Monsterman
11. Therion - The King
12. Tarot - Generation Clash
13. Metalium - Burning
14. Pegazus - Restless And Wild
15. Watchtower - Run If You Can
16. Rykers - London Leatherboys
17. New Eden - China Lady
18. Sacred Steel - Fight It Back
19. Dimmu Borgir - Metal Heart
Код: Выделить всё
Exact Audio Copy V0.99 prebeta 5 from 4. May 2009

Отчёт EAC об извлечении, выполненном 8. июля 2012, 22:33

Various / Tribute To Accept- Vol.1

Дисковод: ASUS    DRW-22B2L   Adapter: 0  ID: 1

Режим чтения                 : Достоверность
Использование точного потока : Да
Отключение кэша аудио        : Да
Использование указателей C2  : Нет

Коррекция смещения при чтении                     : 6
Способность читать области Lead-in и Lead-out     : Нет
Заполнение пропущенных сэмплов тишиной            : Да
Удаление блоков с тишиной в начале и конце        : Нет
При вычислениях CRC использовались нулевые сэмплы : Да
Интерфейс                                         : Встроенный Win32-интерфейс для Win NT/2000

Выходной формат : Внутренние WAV-операции
Формат сэмплов  : 44.100 Гц; 16 бит; стерео

TOC извлечённого CD

     Трек |   Старт  | Длительность | Начальный сектор | Конечный сектор
    ---------------------------------------------------------------------
       1  |  0:00.00 |    5:39.29   |           0      |      25453
       2  |  5:39.29 |    4:35.50   |       25454      |      46128
       3  | 10:15.04 |    3:52.57   |       46129      |      63585
       4  | 14:07.61 |    3:58.72   |       63586      |      81507
       5  | 18:06.58 |    2:27.23   |       81508      |      92555
       6  | 20:34.06 |    3:29.38   |       92556      |     108268
       7  | 24:03.44 |    3:11.51   |      108269      |     122644
       8  | 27:15.20 |    4:22.56   |      122645      |     142350
       9  | 31:38.01 |    4:13.46   |      142351      |     161371
      10  | 35:51.47 |    3:20.01   |      161372      |     176372
      11  | 39:11.48 |    4:08.65   |      176373      |     195037
      12  | 43:20.38 |    5:37.00   |      195038      |     220312
      13  | 48:57.38 |    5:29.04   |      220313      |     244991
      14  | 54:26.42 |    3:58.71   |      244992      |     262912
      15  | 58:25.38 |    4:46.26   |      262913      |     284388
      16  | 63:11.64 |    4:06.66   |      284389      |     302904
      17  | 67:18.55 |    3:38.74   |      302905      |     319328
      18  | 70:57.54 |    2:55.52   |      319329      |     332505
      19  | 73:53.31 |    4:35.45   |      332506      |     353175

Характеристики диапазона извлечения и сообщения об ошибках

Выбранный диапазон

     Имя файла D:\rip-flacmusic.ru\Tribute To Accept 1\Various - Tribute To Accept- Vol.1.wav

     Пиковый уровень 100.0 %
     Качество диапазона 99.9 %
     CRC теста ACE4375A
     CRC копии ACE4375A
     Копирование... OK

Ошибок не произошло

AccurateRip: сводка

Трек  1  точность не определена (достоверность 6)  [44CD42C6], AccurateRip вернул [69920EF5]
Трек  2  точность не определена (достоверность 6)  [F8D7BCCE], AccurateRip вернул [3997E09A]
Трек  3  точность не определена (достоверность 6)  [D4925617], AccurateRip вернул [1EE6EF85]
Трек  4  точность не определена (достоверность 6)  [252DA4CE], AccurateRip вернул [7105B036]
Трек  5  точность не определена (достоверность 6)  [ABA78198], AccurateRip вернул [322C7D15]
Трек  6  точность не определена (достоверность 6)  [9465A312], AccurateRip вернул [5F74BC95]
Трек  7  точность не определена (достоверность 6)  [79CBF3DE], AccurateRip вернул [24FA164A]
Трек  8  точность не определена (достоверность 6)  [AAC4B512], AccurateRip вернул [823C814F]
Трек  9  точность не определена (достоверность 6)  [37452E6B], AccurateRip вернул [63483DC1]
Трек 10  точность не определена (достоверность 6)  [C1DD3B78], AccurateRip вернул [EE144E12]
Трек 11  точность не определена (достоверность 6)  [A6EF6026], AccurateRip вернул [C535DB19]
Трек 12  точность не определена (достоверность 6)  [E0995297], AccurateRip вернул [EB6F045B]
Трек 13  точность не определена (достоверность 5)  [0F25A355], AccurateRip вернул [1F8CF2E2]
Трек 14  точность не определена (достоверность 5)  [918B0FC0], AccurateRip вернул [28E1DDA2]
Трек 15  точность не определена (достоверность 5)  [C25F4739], AccurateRip вернул [E85A7FF2]
Трек 16  точность не определена (достоверность 5)  [5C4AFFB2], AccurateRip вернул [7845CABA]
Трек 17  точность не определена (достоверность 5)  [EFEB4683], AccurateRip вернул [98810E48]
Трек 18  точность не определена (достоверность 5)  [6372F86C], AccurateRip вернул [B47F1BE0]
Трек 19  точность не определена (достоверность 5)  [813B881E], AccurateRip вернул [4A5AF29B]

Ни один трек не прошёл проверки на точность
В вашей базе может быть иной вариант штамповки диска

Конец отчёта
Код: Выделить всё
REM GENRE Metal
REM DATE 1999
REM DISCID 11126513
REM COMMENT "ExactAudioCopy v0.99pb5"
PERFORMER "Various"
TITLE "Tribute To Accept- Vol.1"
FILE "Various - Tribute To Accept- Vol.1.wav" WAVE
  TRACK 01 AUDIO
    TITLE "Sinner - Balls To The Wall"
    PERFORMER "Sinner - Balls To The Wall"
    INDEX 01 00:00:00
  TRACK 02 AUDIO
    TITLE "Hammerfall - Head Over Heels"
    PERFORMER "Hammerfall - Head Over Heels"
    INDEX 01 05:39:29
  TRACK 03 AUDIO
    TITLE "Tankard - Son Of A Bitch"
    PERFORMER "Tankard - Son Of A Bitch"
    INDEX 01 10:15:04
  TRACK 04 AUDIO
    TITLE "Steel Prophet - Fast As A Shark"
    PERFORMER "Steel Prophet - Fast As A Shark"
    INDEX 01 14:07:61
  TRACK 05 AUDIO
    TITLE "Sodom - I'm A Rebel"
    PERFORMER "Sodom - I'm A Rebel"
    INDEX 01 18:06:58
  TRACK 06 AUDIO
    TITLE "Primal Fear - Breaker"
    PERFORMER "Primal Fear - Breaker"
    INDEX 01 20:34:06
  TRACK 07 AUDIO
    TITLE "Atrocity - Shake Your Heads"
    PERFORMER "Atrocity - Shake Your Heads"
    INDEX 01 24:03:44
  TRACK 08 AUDIO
    TITLE "Axxis - Flash Rockin Man"
    PERFORMER "Axxis - Flash Rockin Man"
    INDEX 01 27:15:20
  TRACK 09 AUDIO
    TITLE "Grave Digger - Starlight"
    PERFORMER "Grave Digger - Starlight"
    INDEX 01 31:38:01
  TRACK 10 AUDIO
    TITLE "Seven Witches - Monsterman"
    PERFORMER "Seven Witches - Monsterman"
    INDEX 01 35:51:47
  TRACK 11 AUDIO
    TITLE "Therion - The King"
    PERFORMER "Therion - The King"
    INDEX 01 39:11:48
  TRACK 12 AUDIO
    TITLE "Tarot - Generation Clash"
    PERFORMER "Tarot - Generation Clash"
    INDEX 01 43:20:38
  TRACK 13 AUDIO
    TITLE "Metalium - Burning"
    PERFORMER "Metalium - Burning"
    INDEX 01 48:57:38
  TRACK 14 AUDIO
    TITLE "Pegazus - Restless And Wild"
    PERFORMER "Pegazus - Restless And Wild"
    INDEX 01 54:26:42
  TRACK 15 AUDIO
    TITLE "Watchtower - Run If You Can"
    PERFORMER "Watchtower - Run If You Can"
    INDEX 01 58:25:38
  TRACK 16 AUDIO
    TITLE "Rykers - London Leatherboys"
    PERFORMER "Rykers - London Leatherboys"
    INDEX 01 63:11:64
  TRACK 17 AUDIO
    TITLE "New Eden - China Lady"
    PERFORMER "New Eden - China Lady"
    INDEX 01 67:18:55
  TRACK 18 AUDIO
    TITLE "Sacred Steel - Fight It Back"
    PERFORMER "Sacred Steel - Fight It Back"
    INDEX 01 70:57:54
  TRACK 19 AUDIO
    TITLE "Dimmu Borgir - Metal Heart"
    PERFORMER "Dimmu Borgir - Metal Heart"
    INDEX 01 73:53:31
Код: Выделить всё
AUDIOCHECKER v2.0 beta (build 457) - by Dester - [email protected]
~~~~~~~~~~~~~~~~~~~~~~~~~~~~~~~~~~
-=== НЕ РЕДАКТИРУЙТЕ ЭТОТ ФАЙЛ! ===-

Путь: ...\VA - A Tribute To Accept Vol.1 - 1999

1 -=- Various - Tribute To Accept- Vol.1.flac -=- CDDA (100%)

117680628
 
Не забывайте говорить Спасибо. Не уходите с раздачи!   
Торрент: Зарегистрирован [07 окт 2014, 07:42] Для скачивания .torrent
необходима регистрация
Или скачать с помощью
MediaGet
Статус:
Проверен
 
.torrent скачан: 0 раз
Хэш: 752a588301625427a47d7e37cac77eb1447ed344
Размер: 654.35 МБ (686 134 775 байт)
Стать Автором раздачи
 
 
Раздал: 6.67 ГБ
Скачал: 302.5 МБ
Ратио: 22.576
Сообщения: 374198
Зарегистрирован: 17 апр 2014, 11:05


  • Похожие торренты
    Ответы
    Просмотры
    Последнее сообщение

Вернуться в Сборники "Зарубежный Metal" (lossless)

Ресурс не предоставляет электронные версии произведений, а занимается лишь коллекционированием и каталогизацией ссылок, присылаемых и публикуемых на форуме нашими читателями. Если вы являетесь правообладателем какого-либо представленного материала и не желаете чтобы ссылка на него находилась в нашем каталоге, свяжитесь с нами и мы незамедлительно удалим её. Файлы для обмена на трекере предоставлены пользователями сайта, и администрация не несёт ответственности за их содержание. Просьба не заливать файлы, защищенные авторскими правами, а также файлы нелегального содержания!
cron