(Death, Doom, Gothic, Black) VA - Various - The Holy Bible vol.II-III (On Thorns I Lay, Nightfall, Yearning, Gloomy Grim, Legenda, Septic Flesh, Stille Volk...remastered, unreleased, previously unreleased) - 1999, FLAC (image+.cue), lossless

 
 Статистика раздачи 
Размер: 1.06 ГБ   |  Зарегистрирован: 07 окт 2014, 07:42   |   .torrent скачан: 4 раз
Сидеров: 1  [ 0 байт/сек ]     Личеров: 0  [ 0 байт/сек ]  
  

(Death, Doom, Gothic, Black) VA - Various - The Holy Bible vol.II-III (On Thorns I Lay, Nightfall, Yearning, Gloomy Grim, Legenda, Septic Flesh, Stille Volk...remastered, unreleased, previously unreleased) - 1999, FLAC (image+.cue), lossless

Сообщение Thistoll » 07 окт 2014, 07:42

Various - The Holy Bible vol.II-III (On Thorns I Lay, Nightfall, Yearning...)

Жанр: Death, Doom, Gothic, Black
Страна-производитель диска: EU
Год издания: 1999
Издатель (лейбл): Holy Records
Номер по каталогу: Holy43CD
Аудиокодек: FLAC (*.flac)
Тип рипа: image+.cue
Битрейт аудио: lossless
Продолжительность: 1:15:35, 1:16:01
Источник (релизер): Rex9
Наличие сканов в содержимом раздачи: нет
Треклист:
CD II
1.On Thorns I Lay - Enigma
2.Nightfall - Sheer Misfit
3.Yearning - Unwritten
4.Misanthrope - At 666 Days...
5.Stille Volk - Luna Mecanica
6.Legenda - Eclipse
7.Exhumation - Dance Across the Past
8.Gloomy Grim - Blood
9.Septic Flesh - The Eldest Cosmonaut
10.Godsend - A Wayfarere Tears Part IV
11.SUP - Room Seven
12.Tristitia - Final Lament
13.Serenity - The Way I Bleed
14.Orphaned Land - A Neverending Way
15.Elend - Dancing Under the Closed Eyes of Paradise

CD III

1.Soulgrind - Remembrance Through Deep Red Masquerade
2.Misanthrope - La druidesse du Gévaudan
3.SUP - The Whirling
4.Gloomy Grim - My Domain
5.Natron - Elmer the Exhumer
6.Argile - Fire Before Snow
7.Stille Volk - La chasse au cerf
8.On Thorns I Lay - The Lyries of Eolou
9.Legenda - Where the Devils Dance
10.Tristitia - The Other Side
11.Septic Flesh - Another Reality
12.Exhumation - Forgotten Days (Short Edit)
13.Godsend - Gothic (Thunder Drums Mix)
14.Yearning - Silent Caves-Obliteration
15.Nightfall - For My Soul, When the Dark Falls Into
16.Serenity - Then Came Silence (Live)
Код: Выделить всё
Exact Audio Copy V1.0 beta 3 from 29. August 2011

Отчёт EAC об извлечении, выполненном 16. февраля 2013, 11:03

Various / The Holy Bible vol II

Дисковод: HL-DT-STDVDRAM GT34N   Adapter: 0  ID: 1

Режим чтения                 : Достоверность
Использование точного потока : Да
Отключение кэша аудио        : Да
Использование указателей C2  : Нет

Коррекция смещения при чтении                     : 103
Способность читать области Lead-in и Lead-out     : Нет
Заполнение пропущенных сэмплов тишиной            : Да
Удаление блоков с тишиной в начале и конце        : Нет
При вычислениях CRC использовались нулевые сэмплы : Да
Интерфейс                                         : Встроенный Win32-интерфейс для Win NT/2000

Выходной формат          : Пользовательский кодировщик
Выбранный битрейт        : 128 kBit/s
Качество                 : Высокий
Добавление ID3-тега      : Нет
Утилита сжатия           : C:\Program Files (x86)\Exact Audio Copy\Flac\flac.exe
Дополнительные параметры : -V -8 -T "Date=%year%" -T "Genre=%genre%" %source%

TOC извлечённого CD

     Трек |   Старт  | Длительность | Начальный сектор | Конечный сектор
    ---------------------------------------------------------------------
       1  |  0:00.00 |    4:31.10   |           0      |      20334
       2  |  4:31.10 |    4:20.27   |       20335      |      39861
       3  |  8:51.37 |    4:57.15   |       39862      |      62151
       4  | 13:48.52 |    3:59.20   |       62152      |      80096
       5  | 17:47.72 |    5:52.70   |       80097      |     106566
       6  | 23:40.67 |    5:17.00   |      106567      |     130341
       7  | 28:57.67 |    3:13.48   |      130342      |     144864
       8  | 32:11.40 |    4:00.45   |      144865      |     162909
       9  | 36:12.10 |    4:21.47   |      162910      |     182531
      10  | 40:33.57 |    4:57.15   |      182532      |     204821
      11  | 45:30.72 |    4:24.05   |      204822      |     224626
      12  | 49:55.02 |    7:07.00   |      224627      |     256651
      13  | 57:02.02 |    6:05.28   |      256652      |     284054
      14  | 63:07.30 |    2:52.22   |      284055      |     296976
      15  | 65:59.52 |    9:35.05   |      296977      |     340106

Характеристики диапазона извлечения и сообщения об ошибках

Выбранный диапазон

     Имя файла D:\Загрузка\Various - The Holy Bible vol II\Various - The Holy Bible vol II.wav

     Пиковый уровень 100.0 %
     Скорость извлечения 2.3 X
     Качество диапазона 100.0 %
     CRC теста 9C1498E6
     CRC копии 9C1498E6
     Копирование... OK

Ошибок не произошло

AccurateRip: сводка

Трек  1  : извлечено точно (доверие 1)  [40B68980]  (AR v1)
Трек  2  : извлечено точно (доверие 1)  [C9436C21]  (AR v1)
Трек  3  : извлечено точно (доверие 1)  [527CE545]  (AR v1)
Трек  4  : извлечено точно (доверие 1)  [B10D95F2]  (AR v1)
Трек  5  : извлечено точно (доверие 1)  [3F25587B]  (AR v1)
Трек  6  : извлечено точно (доверие 1)  [66000E98]  (AR v1)
Трек  7  : извлечено точно (доверие 1)  [E77C73AA]  (AR v1)
Трек  8  : извлечено точно (доверие 1)  [B4EF36E2]  (AR v1)
Трек  9  : извлечено точно (доверие 1)  [5AA17CEE]  (AR v1)
Трек 10  : извлечено точно (доверие 1)  [7763F598]  (AR v1)
Трек 11  : извлечено точно (доверие 1)  [1878C795]  (AR v1)
Трек 12  : извлечено точно (доверие 1)  [20DD1F58]  (AR v1)
Трек 13  : извлечено точно (доверие 1)  [B19FC56F]  (AR v1)
Трек 14  : извлечено точно (доверие 1)  [FC0C2D44]  (AR v1)
Трек 15  : извлечено точно (доверие 1)  [4548C47B]  (AR v1)

Все треки извлечены точно

Конец отчёта

==== Контрольная сумма отчёта 9EF74B4538523178A9AFB414CF6DB6A801D8E7FF93CAAA8BF6FB48C61A952C9E ====
Exact Audio Copy V1.0 beta 3 from 29. August 2011

Отчёт EAC об извлечении, выполненном 16. февраля 2013, 12:24

Various / The Holy Bible vol. III

Дисковод: HL-DT-STDVDRAM GT34N   Adapter: 0  ID: 1

Режим чтения                 : Достоверность
Использование точного потока : Да
Отключение кэша аудио        : Да
Использование указателей C2  : Нет

Коррекция смещения при чтении                     : 103
Способность читать области Lead-in и Lead-out     : Нет
Заполнение пропущенных сэмплов тишиной            : Да
Удаление блоков с тишиной в начале и конце        : Нет
При вычислениях CRC использовались нулевые сэмплы : Да
Интерфейс                                         : Встроенный Win32-интерфейс для Win NT/2000

Выходной формат          : Пользовательский кодировщик
Выбранный битрейт        : 128 kBit/s
Качество                 : Высокий
Добавление ID3-тега      : Нет
Утилита сжатия           : C:\Program Files (x86)\Exact Audio Copy\Flac\flac.exe
Дополнительные параметры : -V -8 -T "Date=%year%" -T "Genre=%genre%" %source%

TOC извлечённого CD

     Трек |   Старт  | Длительность | Начальный сектор | Конечный сектор
    ---------------------------------------------------------------------
       1  |  0:00.00 |    4:38.47   |           0      |      20896
       2  |  4:38.47 |    4:16.28   |       20897      |      40124
       3  |  8:55.00 |    4:35.07   |       40125      |      60756
       4  | 13:30.07 |    2:50.00   |       60757      |      73506
       5  | 16:20.07 |    4:44.47   |       73507      |      94853
       6  | 21:04.54 |    6:42.53   |       94854      |     125056
       7  | 27:47.32 |    1:41.50   |      125057      |     132681
       8  | 29:29.07 |    6:37.45   |      132682      |     162501
       9  | 36:06.52 |    5:15.28   |      162502      |     186154
      10  | 41:22.05 |    3:23.35   |      186155      |     201414
      11  | 44:45.40 |    4:35.25   |      201415      |     222064
      12  | 49:20.65 |    5:01.42   |      222065      |     244681
      13  | 54:22.32 |    4:43.18   |      244682      |     265924
      14  | 59:05.50 |    4:56.70   |      265925      |     288194
      15  | 64:02.45 |    5:01.30   |      288195      |     310799
      16  | 69:04.00 |    6:56.42   |      310800      |     342041

Характеристики диапазона извлечения и сообщения об ошибках

Выбранный диапазон

     Имя файла D:\Загрузка\Various - The Holy Bible vol. III\Various - The Holy Bible vol. III.wav

     Пиковый уровень 100.0 %
     Скорость извлечения 2.3 X
     Качество диапазона 100.0 %
     CRC теста 83EE848F
     CRC копии 83EE848F
     Копирование... OK

Ошибок не произошло

AccurateRip: сводка

Трек  1  отсутствует в базе данных
Трек  2  отсутствует в базе данных
Трек  3  отсутствует в базе данных
Трек  4  отсутствует в базе данных
Трек  5  отсутствует в базе данных
Трек  6  отсутствует в базе данных
Трек  7  отсутствует в базе данных
Трек  8  отсутствует в базе данных
Трек  9  отсутствует в базе данных
Трек 10  отсутствует в базе данных
Трек 11  отсутствует в базе данных
Трек 12  отсутствует в базе данных
Трек 13  отсутствует в базе данных
Трек 14  отсутствует в базе данных
Трек 15  отсутствует в базе данных
Трек 16  отсутствует в базе данных

Ни одного трека нет в базе AccurateRip

Конец отчёта

==== Контрольная сумма отчёта 3244BB3705C4EF999116FFC0EC7F622750EB3CE09598BF21B958D582EA39F5A3 ====
Доп. информация: Два CD в одной коробке:
СD II (6, 9, 10, 11, 12, 13 14, 15 - remastered, 1, 2, 3 - previously unreleased)
CD III (5, 12 - remastered, 1, 2, 3, 4, 6, 7, 8, 9, 10, 11, 13, 14, 15, 16 - unreleased)
 
Не забывайте говорить Спасибо. Не уходите с раздачи!   
Торрент: Зарегистрирован [07 окт 2014, 07:42] Для скачивания .torrent
необходима регистрация
Или скачать с помощью
MediaGet
Статус:
Проверен
 
.torrent скачан: 4 раз
Хэш: 0eac983a8e07f85fc3b8239fce8d31f471ed19b8
Размер: 1.06 ГБ (1 142 007 474 байт)
Стать Автором раздачи
 
 
Раздал: 6.67 ГБ
Скачал: 302.5 МБ
Ратио: 22.576
Сообщения: 374198
Зарегистрирован: 17 апр 2014, 11:05


  • Похожие торренты
    Ответы
    Просмотры
    Последнее сообщение

Вернуться в Сборники "Зарубежный Metal" (lossless)

Ресурс не предоставляет электронные версии произведений, а занимается лишь коллекционированием и каталогизацией ссылок, присылаемых и публикуемых на форуме нашими читателями. Если вы являетесь правообладателем какого-либо представленного материала и не желаете чтобы ссылка на него находилась в нашем каталоге, свяжитесь с нами и мы незамедлительно удалим её. Файлы для обмена на трекере предоставлены пользователями сайта, и администрация не несёт ответственности за их содержание. Просьба не заливать файлы, защищенные авторскими правами, а также файлы нелегального содержания!
cron