(NWOBHM) VA - Lightnin’ To The Nations (3 CD Box) (Saxon, Venom, Samson, Diamond Head, etc) - 2005, FLAC (image+.cue), lossless

 
 Статистика раздачи 
Размер: 1.48 ГБ   |  Зарегистрирован: 07 окт 2014, 07:42   |   .torrent скачан: 3 раз
Сидеров: 1  [ 0 байт/сек ]     Личеров: 0  [ 0 байт/сек ]  
  

(NWOBHM) VA - Lightnin’ To The Nations (3 CD Box) (Saxon, Venom, Samson, Diamond Head, etc) - 2005, FLAC (image+.cue), lossless

Сообщение Thistoll » 07 окт 2014, 07:42

Various Artists - Lightnin’ To The Nations (3 CD Box) (Saxon, Venom, Samson, Diamond Head, etc)

Жанр: NWOBHM
Год выпуска диска: 2005
Производитель диска: Великобритания
Аудио кодек: FLAC
Тип рипа: image+.cue
Битрейт аудио: lossless
Продолжительность: 1:11:04+1:13:25+1:11:05
Трэклист:
CD 1

Samson - Vice Versa
White Spirit - High Upon High
Raven - Don't Need Your Money
Sledgehammer - Sledgehammer
Bitches Sin - Always Ready
Blitzkreig - Blitzkreig
Girlschool - Take It All Away
Chevy - Chevy
Persian Risk - Ridin' High
Satan - Trial By Fire
Dark Star - Lady Of Mars
Avenger - On The Rocks
Heavy Pettin' - Love X Love
Xero - Cutting Loose
Hellenbach - Let's Get This Show On The Road
Bronz - Night Runner
Saracen - We Have Arrived
Bastille - Hard Man
Silverwing - Rock N Roll Are 4 Letter Words

CD 2

Diamond Head - Lightning To The Nations
Saxon - Motorcycle Man (Live)
Angel Witch - Angel Of Death
Vardis - If I Were King (Live)
Fist - Name Rank And Serial Number
Marseille - Rock You Tonite
Quartz - Street Fighting Lady (Live)
Atomkraft - Future Warriors
Aragorn - Black Ice
Shy - Give Me A Chance
Venom - In League With Satan
Jess Cox - Piece Of The Action
Tyson Dog - The Inquisitor
Cloven Hoof - Laying Down The Law
Dedringer - Hot Lady
Axis - Messiah
Lone Wolf - Nobody's Move
Mammath - Rock Me

CD 3

Tygers Of Pan Tang - Don't Touch Me There
Praying Mantis – Captured City
Streetfighter - She's No Angel
Sweet Savage - Killing Time
Trespass - One Of These Days
Holocaust - Heavy Metal Mania
Girl - Hollywood Tease
Ethel The Frog - Fight Back
Savage - Let It Loose
Jaguar - Axe Crazy
Black Rose - Knocked Out
Sabre - Miracle Man
Turbo - Running
Crucifixion - Take It Or Leave It
Warfare - Burn Down The Kings Road
Horsepower - You Give Me Candy
Tarot - Feel The Power
She - Never Surrender
Steel - Rock Out

Источник рипа: собственный фирменный диск
Доп. информация: Бокс-сет приурочен к 25-летию подъема Новой Волны Британского Хэви-Метал. Полное название: Lightnin’ To The Nations: NWOBHM 25th Anniversary Collection. Издан лейблом Sanctuary Records Group, точнее, его подлейблом Castle Music, каталожный номер 2005 CMETD 1022. Сканы прилагаются
Exact Audio Copy V0.99 prebeta 5 from 4. May 2009

EAC extraction logfile from 4. June 2010, 20:28

Various / NWOBHM 25th Anniversary Collection (Disc 1)

Used drive : ASUS DRW-22B2S Adapter: 0 ID: 1

Read mode : Secure
Utilize accurate stream : Yes
Defeat audio cache : Yes
Make use of C2 pointers : No

Read offset correction : 6
Overread into Lead-In and Lead-Out : No
Fill up missing offset samples with silence : Yes
Delete leading and trailing silent blocks : No
Null samples used in CRC calculations : Yes
Used interface : Native Win32 interface for Win NT & 2000

Used output format : Internal WAV Routines
Sample format : 44.100 Hz; 16 Bit; Stereo

TOC of the extracted CD

Track | Start | Length | Start sector | End sector
---------------------------------------------------------
1 | 0:00.00 | 4:46.38 | 0 | 21487
2 | 4:46.38 | 4:33.52 | 21488 | 42014
3 | 9:20.15 | 3:18.69 | 42015 | 56933
4 | 12:39.09 | 3:11.21 | 56934 | 71279
5 | 15:50.30 | 2:53.67 | 71280 | 84321
6 | 18:44.22 | 3:21.70 | 84322 | 99466
7 | 22:06.17 | 3:45.20 | 99467 | 116361
8 | 25:51.37 | 4:37.45 | 116362 | 137181
9 | 30:29.07 | 3:09.21 | 137182 | 151377
10 | 33:38.28 | 4:21.01 | 151378 | 170953
11 | 37:59.29 | 4:28.66 | 170954 | 191119
12 | 42:28.20 | 3:14.00 | 191120 | 205669
13 | 45:42.20 | 4:29.32 | 205670 | 225876
14 | 50:11.52 | 4:26.59 | 225877 | 245885
15 | 54:38.36 | 2:25.45 | 245886 | 256805
16 | 57:04.06 | 3:08.63 | 256806 | 270968
17 | 60:12.69 | 3:50.29 | 270969 | 288247
18 | 64:03.23 | 3:46.02 | 288248 | 305199
19 | 67:49.25 | 3:15.29 | 305200 | 319853

Range status and errors

Selected range

Filename C:\Various - NWOBHM 25th Anniversary Collection (Disc 1).wav

Peak level 100.0 %
Range quality 99.9 %
Copy CRC 8D4AF4B8
Copy OK

No errors occurred

AccurateRip summary

Track 1 accurately ripped (confidence 1) [C86F7E2E]
Track 2 accurately ripped (confidence 1) [ACF6D21F]
Track 3 accurately ripped (confidence 1) [AD85E9C0]
Track 4 accurately ripped (confidence 1) [223FC744]
Track 5 accurately ripped (confidence 1) [E395E586]
Track 6 accurately ripped (confidence 1) [CE0C5DD7]
Track 7 accurately ripped (confidence 1) [51E81CFD]
Track 8 accurately ripped (confidence 1) [27E5F1E6]
Track 9 accurately ripped (confidence 1) [01D250EC]
Track 10 accurately ripped (confidence 1) [D987B78D]
Track 11 accurately ripped (confidence 1) [54BA12B1]
Track 12 accurately ripped (confidence 1) [D5B10DC7]
Track 13 accurately ripped (confidence 1) [0B28E69E]
Track 14 accurately ripped (confidence 1) [47017408]
Track 15 accurately ripped (confidence 1) [C9089B63]
Track 16 accurately ripped (confidence 1) [5FBB8202]
Track 17 accurately ripped (confidence 1) [2B84DE76]
Track 18 accurately ripped (confidence 1) [50E37051]
Track 19 accurately ripped (confidence 1) [8621B379]

All tracks accurately ripped

End of status report
Exact Audio Copy V0.99 prebeta 5 from 4. May 2009

EAC extraction logfile from 4. June 2010, 19:18

Various / NWOBHM 25th Anniversary Collection (Disc 2)

Used drive : ASUS DRW-22B2S Adapter: 0 ID: 1

Read mode : Secure
Utilize accurate stream : Yes
Defeat audio cache : Yes
Make use of C2 pointers : No

Read offset correction : 6
Overread into Lead-In and Lead-Out : No
Fill up missing offset samples with silence : Yes
Delete leading and trailing silent blocks : No
Null samples used in CRC calculations : Yes
Used interface : Native Win32 interface for Win NT & 2000

Used output format : Internal WAV Routines
Sample format : 44.100 Hz; 16 Bit; Stereo

TOC of the extracted CD

Track | Start | Length | Start sector | End sector
---------------------------------------------------------
1 | 0:00.00 | 4:14.45 | 0 | 19094
2 | 4:14.45 | 4:11.44 | 19095 | 37963
3 | 8:26.14 | 4:54.00 | 37964 | 60013
4 | 13:20.14 | 4:09.23 | 60014 | 78711
5 | 17:29.37 | 3:20.41 | 78712 | 93752
6 | 20:50.03 | 5:40.25 | 93753 | 119277
7 | 26:30.28 | 4:32.35 | 119278 | 139712
8 | 31:02.63 | 4:11.35 | 139713 | 158572
9 | 35:14.23 | 3:33.51 | 158573 | 174598
10 | 38:47.74 | 3:54.30 | 174599 | 192178
11 | 42:42.29 | 3:29.28 | 192179 | 207881
12 | 46:11.57 | 3:03.30 | 207882 | 221636
13 | 49:15.12 | 4:05.55 | 221637 | 240066
14 | 53:20.67 | 4:45.67 | 240067 | 261508
15 | 58:06.59 | 3:20.03 | 261509 | 276511
16 | 61:26.62 | 4:12.33 | 276512 | 295444
17 | 65:39.20 | 5:02.60 | 295445 | 318154
18 | 70:42.05 | 2:43.58 | 318155 | 330437

Range status and errors

Selected range

Filename C:\Various - NWOBHM 25th Anniversary Collection (Disc 2).wav

Peak level 99.7 %
Range quality 99.9 %
Copy CRC 6FC2F6E8
Copy OK

No errors occurred

AccurateRip summary

Track 1 not present in database
Track 2 not present in database
Track 3 not present in database
Track 4 not present in database
Track 5 not present in database
Track 6 not present in database
Track 7 not present in database
Track 8 not present in database
Track 9 not present in database
Track 10 not present in database
Track 11 not present in database
Track 12 not present in database
Track 13 not present in database
Track 14 not present in database
Track 15 not present in database
Track 16 not present in database
Track 17 not present in database
Track 18 not present in database

None of the tracks are present in the AccurateRip database

End of status report
Exact Audio Copy V0.99 prebeta 5 from 4. May 2009

EAC extraction logfile from 4. June 2010, 19:49

Various / NWOBHM 25th Anniversary Collection (Disc 3)

Used drive : ASUS DRW-22B2S Adapter: 0 ID: 1

Read mode : Secure
Utilize accurate stream : Yes
Defeat audio cache : Yes
Make use of C2 pointers : No

Read offset correction : 6
Overread into Lead-In and Lead-Out : No
Fill up missing offset samples with silence : Yes
Delete leading and trailing silent blocks : No
Null samples used in CRC calculations : Yes
Used interface : Native Win32 interface for Win NT & 2000

Used output format : Internal WAV Routines
Sample format : 44.100 Hz; 16 Bit; Stereo

TOC of the extracted CD

Track | Start | Length | Start sector | End sector
---------------------------------------------------------
1 | 0:00.00 | 2:27.21 | 0 | 11045
2 | 2:27.21 | 5:33.19 | 11046 | 36039
3 | 8:00.40 | 6:05.46 | 36040 | 63460
4 | 14:06.11 | 2:37.37 | 63461 | 75272
5 | 16:43.48 | 3:54.23 | 75273 | 92845
6 | 20:37.71 | 4:06.01 | 92846 | 111296
7 | 24:43.72 | 2:38.59 | 111297 | 123205
8 | 27:22.56 | 3:00.35 | 123206 | 136740
9 | 30:23.16 | 3:17.07 | 136741 | 151522
10 | 33:40.23 | 2:49.24 | 151523 | 164221
11 | 36:29.47 | 3:18.69 | 164222 | 179140
12 | 39:48.41 | 4:08.26 | 179141 | 197766
13 | 43:56.67 | 2:37.44 | 197767 | 209585
14 | 46:34.36 | 3:10.72 | 209586 | 223907
15 | 49:45.33 | 2:34.24 | 223908 | 235481
16 | 52:19.57 | 4:37.45 | 235482 | 256301
17 | 56:57.27 | 5:30.55 | 256302 | 281106
18 | 62:28.07 | 3:35.66 | 281107 | 297297
19 | 66:03.73 | 5:01.56 | 297298 | 319928

Range status and errors

Selected range

Filename C:\Various - NWOBHM 25th Anniversary Collection (Disc 3).wav

Peak level 99.7 %
Range quality 99.9 %
Copy CRC 2D1A0D9D
Copy OK

No errors occurred

AccurateRip summary

Track 1 not present in database
Track 2 not present in database
Track 3 not present in database
Track 4 not present in database
Track 5 not present in database
Track 6 not present in database
Track 7 not present in database
Track 8 not present in database
Track 9 not present in database
Track 10 not present in database
Track 11 not present in database
Track 12 not present in database
Track 13 not present in database
Track 14 not present in database
Track 15 not present in database
Track 16 not present in database
Track 17 not present in database
Track 18 not present in database
Track 19 not present in database

None of the tracks are present in the AccurateRip database

End of status report
 
Не забывайте говорить Спасибо. Не уходите с раздачи!   
Торрент: Зарегистрирован [07 окт 2014, 07:42] Для скачивания .torrent
необходима регистрация
Или скачать с помощью
MediaGet
Статус:
Проверен
 
.torrent скачан: 3 раз
Хэш: 8c64ee6f33ae4ab80447bfd6b295e5f65292b37b
Размер: 1.48 ГБ (1 588 026 649 байт)
Стать Автором раздачи
 
 
Раздал: 6.67 ГБ
Скачал: 302.5 МБ
Ратио: 22.576
Сообщения: 374198
Зарегистрирован: 17 апр 2014, 11:05


  • Похожие торренты
    Ответы
    Просмотры
    Последнее сообщение

Вернуться в Сборники "Зарубежный Metal" (lossless)

Ресурс не предоставляет электронные версии произведений, а занимается лишь коллекционированием и каталогизацией ссылок, присылаемых и публикуемых на форуме нашими читателями. Если вы являетесь правообладателем какого-либо представленного материала и не желаете чтобы ссылка на него находилась в нашем каталоге, свяжитесь с нами и мы незамедлительно удалим её. Файлы для обмена на трекере предоставлены пользователями сайта, и администрация не несёт ответственности за их содержание. Просьба не заливать файлы, защищенные авторскими правами, а также файлы нелегального содержания!
cron