(Death Metal) VA - Seven Gates Of Horror (A Tribute To Possessed) - 2004, FLAC (image+.cue) lossless

 
 Статистика раздачи 
Размер: 388.67 МБ   |  Зарегистрирован: 07 окт 2014, 07:42   |   .torrent скачан: 0 раз
Сидеров: 1  [ 0 байт/сек ]     Личеров: 0  [ 0 байт/сек ]  
  

(Death Metal) VA - Seven Gates Of Horror (A Tribute To Possessed) - 2004, FLAC (image+.cue) lossless

Сообщение Thistoll » 07 окт 2014, 07:42

Seven Gates Of Horror (A Tribute To Possessed)

Жанр: Death Metal
Год издания диска: 2004
Издатель (лейбл): Candlelight Records (Under License From Karmageddon Media)
Номер по каталогу: CANUS0086CD
Аудио кодек: FLAC (*.flac)
Тип рипа: image+.cue
Битрейт аудио: lossless
Продолжительность: 00:48:17
Источник (релизер): Я
Наличие сканов в содержимом раздачи: да
Треклист:
01.Sadistic Intent (ft. Jeff Beccara) - The Excorcist (4:45)
02.Impious - Fallen Angel (3:30)
03.Cannibal Corpse - Confessions (2:55)
04.Pentacle - The Beasts of Apocalypse (3:49)
05.Vader - Death Metal (2:38)
06.Diabolic - No Will to Live (7:00)
07.God Dethroned - Satans Curse (4:16)
08.Absu - Swing of the Axe (3:13)
09.Sinister - Storm in my Mind (3:55)
10.Angel Corpse - Burning in Hell (2:28)
11.Krabathor - Evil Warriors (3:39)
12.Houwitser - March to Die (2:48)
13.Amon Amarth - The Eyes of Horror (3:20)
Код: Выделить всё
Exact Audio Copy V0.99 prebeta 5 from 4. May 2009

Отчёт EAC об извлечении, выполненном 10. ноября 2010, 22:06

Various Artists / Seven Gates Of Horror ( A Tribute To Possessed )

Дисковод: Optiarc DVD RW AD-5240S   Adapter: 1  ID: 1

Режим чтения                 : Достоверность
Использование точного потока : Да
Отключение кэша аудио        : Да
Использование указателей C2  : Нет

Коррекция смещения при чтении                     : 48
Способность читать области Lead-in и Lead-out     : Нет
Заполнение пропущенных сэмплов тишиной            : Да
Удаление блоков с тишиной в начале и конце        : Нет
При вычислениях CRC использовались нулевые сэмплы : Да
Интерфейс                                         : Встроенный Win32-интерфейс для Win NT/2000

Выходной формат : Внутренние WAV-операции
Формат сэмплов  : 44.100 Гц; 16 бит; стерео

TOC извлечённого CD

     Трек |   Старт  | Длительность | Начальный сектор | Конечный сектор
    ---------------------------------------------------------------------
       1  |  0:00.00 |    4:44.48   |           0      |      21347
       2  |  4:44.48 |    3:29.65   |       21348      |      37087
       3  |  8:14.38 |    2:54.69   |       37088      |      50206
       4  | 11:09.32 |    3:48.64   |       50207      |      67370
       5  | 14:58.21 |    2:38.27   |       67371      |      79247
       6  | 17:36.48 |    7:00.01   |       79248      |     110748
       7  | 24:36.49 |    4:16.24   |      110749      |     129972
       8  | 28:52.73 |    3:13.22   |      129973      |     144469
       9  | 32:06.20 |    3:55.12   |      144470      |     162106
      10  | 36:01.32 |    2:28.18   |      162107      |     173224
      11  | 38:29.50 |    3:39.21   |      173225      |     189670
      12  | 42:08.71 |    2:48.12   |      189671      |     202282
      13  | 44:57.08 |    3:20.13   |      202283      |     217295

Характеристики диапазона извлечения и сообщения об ошибках

Выбранный диапазон

     Имя файла C:\Documents and Settings\user\Мои документы\Моя музыка\Various Artists - Seven Gates Of Horror ( A Tribute To Possessed ).wav

     Пиковый уровень 100.0 %
     Качество диапазона 99.9 %
     CRC теста 5AB11038
     CRC копии 5AB11038
     Копирование... OK

Ошибок не произошло

AccurateRip: сводка

Трек  1  точное извлечение (доверие 1)  [A9DF93E9]
Трек  2  точное извлечение (доверие 1)  [084596F9]
Трек  3  точное извлечение (доверие 1)  [4DC537C2]
Трек  4  точное извлечение (доверие 1)  [1AA69463]
Трек  5  точное извлечение (доверие 1)  [ADDFA08C]
Трек  6  точное извлечение (доверие 1)  [C24D2E1B]
Трек  7  точное извлечение (доверие 1)  [F5D87217]
Трек  8  точное извлечение (доверие 1)  [F31C935B]
Трек  9  точное извлечение (доверие 1)  [F76595FA]
Трек 10  точное извлечение (доверие 1)  [B04FFD40]
Трек 11  точное извлечение (доверие 1)  [1E78D9AA]
Трек 12  точное извлечение (доверие 1)  [2BCD0D34]
Трек 13  точное извлечение (доверие 1)  [4000EF7F]

Все треки извлечены точно

Конец отчёта
 
Не забывайте говорить Спасибо. Не уходите с раздачи!   
Торрент: Зарегистрирован [07 окт 2014, 07:42] Для скачивания .torrent
необходима регистрация
Или скачать с помощью
MediaGet
Статус:
Проверен
 
.torrent скачан: 0 раз
Хэш: d6501616d608f4235c9e47b7dcb1595860a8b7bc
Размер: 388.67 МБ (407 550 008 байт)
Стать Автором раздачи
 
 
Раздал: 6.67 ГБ
Скачал: 302.5 МБ
Ратио: 22.576
Сообщения: 374198
Зарегистрирован: 17 апр 2014, 11:05


  • Похожие торренты
    Ответы
    Просмотры
    Последнее сообщение

Вернуться в Сборники "Зарубежный Metal" (lossless)

Ресурс не предоставляет электронные версии произведений, а занимается лишь коллекционированием и каталогизацией ссылок, присылаемых и публикуемых на форуме нашими читателями. Если вы являетесь правообладателем какого-либо представленного материала и не желаете чтобы ссылка на него находилась в нашем каталоге, свяжитесь с нами и мы незамедлительно удалим её. Файлы для обмена на трекере предоставлены пользователями сайта, и администрация не несёт ответственности за их содержание. Просьба не заливать файлы, защищенные авторскими правами, а также файлы нелегального содержания!
cron