(Hark Rock, Heavy Metal) VA - We Wish You A Metal Xmas And A Headbanging New Year (Deluxe Edition) - 2010, FLAC (tracks+.cue), lossless

 
 Статистика раздачи 
Размер: 479.72 МБ   |  Зарегистрирован: 07 окт 2014, 07:42   |   .torrent скачан: 0 раз
Сидеров: 1  [ 0 байт/сек ]     Личеров: 0  [ 0 байт/сек ]  
  

(Hark Rock, Heavy Metal) VA - We Wish You A Metal Xmas And A Headbanging New Year (Deluxe Edition) - 2010, FLAC (tracks+.cue), lossless

Сообщение Thistoll » 07 окт 2014, 07:42

We Wish You A Metal Xmas And A Headbanging New Year (Deluxe Edition)

Жанр: Hark Rock, Heavy Metal
Страна-производитель диска: USA
Год издания диска: 2010
Издатель (лейбл): Armoury Records
Аудиокодек: FLAC (*.flac)
Тип рипа: tracks+.cue
Битрейт аудио: lossless
Продолжительность: 1:07:04
Источник (релизер): собственный рип
Наличие сканов в содержимом раздачи: нет
Треклист:
CD1
01. Jeff Scott Soto, Bruce Kulick, Bob Kulick, Chris Wyse, Ray Luzier - We Wish You A Merry Xmas (4:41)
02. Lemmy Kilmister, Billy F. Gibbons, Dave Grohl - Run Rudolph Run (3:33)
03. Alice Cooper, John 5, Billy Sheehan, Vinny Appice - Santa Claus Is Coming To Town (4:22)
04. Ronnie James Dio, Tony Iommi, Rudy Sarzo, Simon Wright - God Rest Ye Merry Gentlemen (4:09)
05. Geoff Tate, Carlos Cavazo, James Lomenzo, Ray Luzier - Silver Bells (5:07)
06. Doug Pinnick, George Lynch, Billy Sheehan, Simon Phillips - Little Drummer Boy (4:40)
07. Tim "Ripper" Owens, Steve Morse, Juan Garcia, Marco Mendoza, Vinny Appice - Santa Claus Is Back In Town (4:04)
08. Chuck Billy, Scott Ian, Jon Donais, Chris Wyse, John Tempesta - Silent Night (4:13)
09. Oni Logan, Craig Goldy, Tony Franklin, John Tempesta - Deck The Halls (4:13)
10. Stephen Pearcy, Tracii Guns, Bob Kulick, Billy Sheehan, Greg Bissonette - Grandma Got Ran Over By A Reindeer (4:43)
11. Joe Lynn Turner, Bruce Kulick, Bob Kulick, Rudy Sarzo, Simon Wright - Rockin' Around The Xmas Tree (3:24)
12. Tommy Shaw, Steve Lukather, Marco Mendoza, Kenny Aronoff - Happy Xmas (War Is Over) (4:28)

CD2
01. Doro Perch, Michael Schenker, Tony Franklin, Frankie Benali - O' Christmas Tree (4:16)
02. Girlschool - Auld Lang Syne (3:21)
03. Steve 'Lips' Kudlow, Bumblefoot, Chris Chaney, Kenny Aronoff - Frosty The Snowman (4:06)
04. Dez Fafara, Doug Aldrich, Blasko, John Tempesta - Rudolph The Red Nosed Reindeer (4:08)
Код: Выделить всё
Exact Audio Copy V1.0 beta 2 from 29. April 2011

EAC extraction logfile from 26. December 2011, 3:51

- / We Wish You A Metal Xmas And A Headbanging New Year (CD1)

Used drive  : HL-DT-STDVDRAM GH22NS50   Adapter: 1  ID: 0

Read mode               : Secure
Utilize accurate stream : Yes
Defeat audio cache      : Yes
Make use of C2 pointers : No

Read offset correction                      : 667
Overread into Lead-In and Lead-Out          : No
Fill up missing offset samples with silence : Yes
Delete leading and trailing silent blocks   : No
Null samples used in CRC calculations       : Yes
Used interface                              : Native Win32 interface for Win NT & 2000
Gap handling                                : Appended to previous track

Used output format              : User Defined Encoder
Selected bitrate                : 768 kBit/s
Quality                         : High
Add ID3 tag                     : No
Command line compressor         : C:\Program Files (x86)\Exact Audio Copy\FLAC\FLAC.EXE
Additional command line options : -V -8 -T "Genre=%genre%" -T "Artist=%artist%" -T "Title=%title%" -T "Album=%albumtitle%" -T "Date=%year%" -T "Tracknumber=%tracknr%" -T "Comment=%comment%" %source%

TOC of the extracted CD

     Track |   Start  |  Length  | Start sector | End sector
    ---------------------------------------------------------
        1  |  0:00.00 |  4:39.06 |         0    |    20930
        2  |  4:39.06 |  3:30.67 |     20931    |    36747
        3  |  8:09.73 |  4:19.39 |     36748    |    56211
        4  | 12:29.37 |  4:06.71 |     56212    |    74732
        5  | 16:36.33 |  5:05.12 |     74733    |    97619
        6  | 21:41.45 |  4:37.67 |     97620    |   118461
        7  | 26:19.37 |  4:01.23 |    118462    |   136559
        8  | 30:20.60 |  4:11.01 |    136560    |   155385
        9  | 34:31.61 |  4:10.49 |    155386    |   174184
       10  | 38:42.35 |  4:41.11 |    174185    |   195270
       11  | 43:23.46 |  3:21.59 |    195271    |   210404
       12  | 46:45.30 |  4:27.51 |    210405    |   230480

Track  1

     Filename E:\Music\_Crazy_Covers\Xmas\2010 - We Wish You A Metal Xmas and a Headbanging New Year\CD1\01 - Jeff Scott Soto, Bruce Kulick, Bob Kulick, Chris Wyse, Ray Luzier - We Wish You A Merry Xmas.wav

     Pre-gap length  0:00:02.00

     Peak level 99.8 %
     Extraction speed 1.2 X
     Track quality 100.0 %
     Test CRC A87F0104
     Copy CRC A87F0104
     Accurately ripped (confidence 3)  [BF3DAAE5]  (AR v2)
     Copy OK

Track  2

     Filename E:\Music\_Crazy_Covers\Xmas\2010 - We Wish You A Metal Xmas and a Headbanging New Year\CD1\02 - Lemmy Kilmister, Billy F. Gibbons, Dave Grohl - Run Rudolph Run.wav

     Peak level 99.8 %
     Extraction speed 1.3 X
     Track quality 100.0 %
     Test CRC 36639361
     Copy CRC 36639361
     Accurately ripped (confidence 3)  [CDB9738F]  (AR v2)
     Copy OK

Track  3

     Filename E:\Music\_Crazy_Covers\Xmas\2010 - We Wish You A Metal Xmas and a Headbanging New Year\CD1\03 - Alice Cooper, John 5, Billy Sheehan, Vinny Appice - Santa Claws Is Coming To Town.wav

     Peak level 99.8 %
     Extraction speed 1.4 X
     Track quality 100.0 %
     Test CRC 7C2B8F49
     Copy CRC 7C2B8F49
     Accurately ripped (confidence 3)  [053D933C]  (AR v2)
     Copy OK

Track  4

     Filename E:\Music\_Crazy_Covers\Xmas\2010 - We Wish You A Metal Xmas and a Headbanging New Year\CD1\04 - Ronnie James Dio, Tony Iommi, Rudy Sarzo, Simon Wright - God Rest Ye Merry Gentlemen.wav

     Peak level 99.8 %
     Extraction speed 1.5 X
     Track quality 100.0 %
     Test CRC F81C5CAB
     Copy CRC F81C5CAB
     Accurately ripped (confidence 3)  [5EE04026]  (AR v2)
     Copy OK

Track  5

     Filename E:\Music\_Crazy_Covers\Xmas\2010 - We Wish You A Metal Xmas and a Headbanging New Year\CD1\05 - Geoff Tate, Carlos Cavazo, James Lomenzo, Ray Luzier - Silver Bells.wav

     Peak level 99.8 %
     Extraction speed 1.7 X
     Track quality 100.0 %
     Test CRC 4D0F57B4
     Copy CRC 4D0F57B4
     Accurately ripped (confidence 3)  [56D17AA0]  (AR v2)
     Copy OK

Track  6

     Filename E:\Music\_Crazy_Covers\Xmas\2010 - We Wish You A Metal Xmas and a Headbanging New Year\CD1\06 - Doug Pinnick, George Lynch, Billy Sheehan, Simon Phillips - Little Drummer Boy.wav

     Peak level 99.8 %
     Extraction speed 1.6 X
     Track quality 99.9 %
     Test CRC 4614B108
     Copy CRC 4614B108
     Accurately ripped (confidence 3)  [19594316]  (AR v2)
     Copy OK

Track  7

     Filename E:\Music\_Crazy_Covers\Xmas\2010 - We Wish You A Metal Xmas and a Headbanging New Year\CD1\07 - Tim ''Ripper'' Owens, Steve Morse, Juan Garcia, Marco Mendoza, Vinny Appice - Santa Claus Is Back In Town.wav

     Peak level 99.8 %
     Extraction speed 1.9 X
     Track quality 100.0 %
     Test CRC 33DC3BEA
     Copy CRC 33DC3BEA
     Accurately ripped (confidence 3)  [8BF01893]  (AR v2)
     Copy OK

Track  8

     Filename E:\Music\_Crazy_Covers\Xmas\2010 - We Wish You A Metal Xmas and a Headbanging New Year\CD1\08 - Chuck Billy, Scott Ian, Jon Donais, Chris Wyse, John Tempesta - Silent Night.wav

     Peak level 99.8 %
     Extraction speed 1.7 X
     Track quality 99.9 %
     Test CRC 85959CFE
     Copy CRC 85959CFE
     Accurately ripped (confidence 3)  [895C115D]  (AR v2)
     Copy OK

Track  9

     Filename E:\Music\_Crazy_Covers\Xmas\2010 - We Wish You A Metal Xmas and a Headbanging New Year\CD1\09 - Oni Logan, Craig Goldy, Tony Franklin, John Tempesta - Deck The Halls.wav

     Peak level 99.8 %
     Extraction speed 1.8 X
     Track quality 99.9 %
     Test CRC 63D6662C
     Copy CRC 63D6662C
     Accurately ripped (confidence 3)  [9CA21BAF]  (AR v2)
     Copy OK

Track 10

     Filename E:\Music\_Crazy_Covers\Xmas\2010 - We Wish You A Metal Xmas and a Headbanging New Year\CD1\10 - Stephen Pearcy, Tracii Guns, Bob Kulick, Billy Sheehan, Greg Bissonette - Grandma Got Ran Over By A Reindeer.wav

     Peak level 99.8 %
     Extraction speed 2.2 X
     Track quality 100.0 %
     Test CRC 696DE3EB
     Copy CRC 696DE3EB
     Accurately ripped (confidence 3)  [09BA2E19]  (AR v2)
     Copy OK

Track 11

     Filename E:\Music\_Crazy_Covers\Xmas\2010 - We Wish You A Metal Xmas and a Headbanging New Year\CD1\11 - Joe Lynn Turner, Bruce Kulick, Bob Kulick, Rudy Sarzo, Simon Wright - Rockin' Around The Xmas Tree.wav

     Peak level 99.8 %
     Extraction speed 2.1 X
     Track quality 100.0 %
     Test CRC EB4CF1B8
     Copy CRC EB4CF1B8
     Accurately ripped (confidence 3)  [90C7096F]  (AR v2)
     Copy OK

Track 12

     Filename E:\Music\_Crazy_Covers\Xmas\2010 - We Wish You A Metal Xmas and a Headbanging New Year\CD1\12 - Tommy Shaw, Steve Lukather, Marco Mendoza, Kenny Aronoff - Happy Xmas (War Is Over).wav

     Peak level 98.9 %
     Extraction speed 2.4 X
     Track quality 100.0 %
     Test CRC D80BF850
     Copy CRC D80BF850
     Accurately ripped (confidence 3)  [CCDB7542]  (AR v2)
     Copy OK

All tracks accurately ripped

No errors occurred

End of status report

==== Log checksum CBB59622896A7DBC3DD28335124B8298B7387A366FDFEC8E61DB667366F0A102 ====

Exact Audio Copy V1.0 beta 2 from 29. April 2011

EAC extraction logfile from 26. December 2011, 5:39

Various / We Wish You A Metal Christmas & A Headbanging New Year (CD2)

Used drive  : HL-DT-STDVDRAM GH22NS50   Adapter: 1  ID: 0

Read mode               : Secure
Utilize accurate stream : Yes
Defeat audio cache      : Yes
Make use of C2 pointers : No

Read offset correction                      : 667
Overread into Lead-In and Lead-Out          : No
Fill up missing offset samples with silence : Yes
Delete leading and trailing silent blocks   : No
Null samples used in CRC calculations       : Yes
Used interface                              : Native Win32 interface for Win NT & 2000
Gap handling                                : Appended to previous track

Used output format              : User Defined Encoder
Selected bitrate                : 768 kBit/s
Quality                         : High
Add ID3 tag                     : No
Command line compressor         : C:\Program Files (x86)\Exact Audio Copy\FLAC\FLAC.EXE
Additional command line options : -V -8 -T "Genre=%genre%" -T "Artist=%artist%" -T "Title=%title%" -T "Album=%albumtitle%" -T "Date=%year%" -T "Tracknumber=%tracknr%" -T "Comment=%comment%" %source%

TOC of the extracted CD

     Track |   Start  |  Length  | Start sector | End sector
    ---------------------------------------------------------
        1  |  0:00.00 |  4:16.17 |         0    |    19216
        2  |  4:16.17 |  3:20.57 |     19217    |    34273
        3  |  7:36.74 |  4:05.64 |     34274    |    52712
        4  | 11:42.63 |  4:08.08 |     52713    |    71320

Track  1

     Filename E:\Music\_Crazy_Covers\Xmas\2010 - We Wish You A Metal Xmas and a Headbanging New Year\CD2\01 - Doro Pesch, Michael Schenker, Tony Franklin, Frankie Banali - O' Christmas Tree.wav

     Pre-gap length  0:00:02.00

     Peak level 99.8 %
     Extraction speed 1.0 X
     Track quality 100.0 %
     Test CRC 67DBC4C9
     Copy CRC 67DBC4C9
     Accurately ripped (confidence 2)  [C5C0FA02]  (AR v2)
     Copy OK

Track  2

     Filename E:\Music\_Crazy_Covers\Xmas\2010 - We Wish You A Metal Xmas and a Headbanging New Year\CD2\02 - Girlschool - Auld Lang Syne.wav

     Peak level 99.8 %
     Extraction speed 1.1 X
     Track quality 100.0 %
     Test CRC A02B1464
     Copy CRC A02B1464
     Accurately ripped (confidence 3)  [2B10F8D3]  (AR v2)
     Copy OK

Track  3

     Filename E:\Music\_Crazy_Covers\Xmas\2010 - We Wish You A Metal Xmas and a Headbanging New Year\CD2\03 - Steve ''Lips'' Kudlow, Bumblefoot, Chris Chaney, Kenny Aronoff - Frosty The Snowman.wav

     Peak level 96.6 %
     Extraction speed 1.2 X
     Track quality 100.0 %
     Test CRC 69CDD107
     Copy CRC 69CDD107
     Accurately ripped (confidence 3)  [C47CE60D]  (AR v2)
     Copy OK

Track  4

     Filename E:\Music\_Crazy_Covers\Xmas\2010 - We Wish You A Metal Xmas and a Headbanging New Year\CD2\04 - Rudolph The Red Nosed Reindeer - Rudolph The Red Nosed Reindeer.wav

     Peak level 96.6 %
     Extraction speed 1.3 X
     Track quality 100.0 %
     Test CRC 741BF14C
     Copy CRC 741BF14C
     Accurately ripped (confidence 3)  [8134B75A]  (AR v2)
     Copy OK

All tracks accurately ripped

No errors occurred

End of status report

==== Log checksum 9017A9EBF408C9A08D913D7E769EDEA1B58B97C5815BE402C9484A9CE2A895FE ====
Код: Выделить всё
REM GENRE Metal
REM DATE 2010
REM DISCID 9A0C010C
REM COMMENT "ExactAudioCopy v1.0b2"
PERFORMER ""
TITLE "We Wish You A Metal Xmas And A Headbanging New Year (CD1)"
FILE "01 - Jeff Scott Soto, Bruce Kulick, Bob Kulick, Chris Wyse, Ray Luzier - We Wish You A Merry Xmas.wav" WAVE
  TRACK 01 AUDIO
    TITLE "We Wish You A Merry Xmas"
    PERFORMER "Jeff Scott Soto, Bruce Kulick, Bob Kulick, Chris Wyse, Ray Luzier"
    INDEX 01 00:00:00
FILE "02 - Lemmy Kilmister, Billy F. Gibbons, Dave Grohl - Run Rudolph Run.wav" WAVE
  TRACK 02 AUDIO
    TITLE "Run Rudolph Run"
    PERFORMER "Lemmy Kilmister, Billy F. Gibbons, Dave Grohl"
    INDEX 01 00:00:00
FILE "03 - Alice Cooper, John 5, Billy Sheehan, Vinny Appice - Santa Claws Is Coming To Town.wav" WAVE
  TRACK 03 AUDIO
    TITLE "Santa Claws Is Coming To Town"
    PERFORMER "Alice Cooper, John 5, Billy Sheehan, Vinny Appice"
    INDEX 01 00:00:00
FILE "04 - Ronnie James Dio, Tony Iommi, Rudy Sarzo, Simon Wright - God Rest Ye Merry Gentlemen.wav" WAVE
  TRACK 04 AUDIO
    TITLE "God Rest Ye Merry Gentlemen"
    PERFORMER "Ronnie James Dio, Tony Iommi, Rudy Sarzo, Simon Wright"
    INDEX 01 00:00:00
FILE "05 - Geoff Tate, Carlos Cavazo, James Lomenzo, Ray Luzier - Silver Bells.wav" WAVE
  TRACK 05 AUDIO
    TITLE "Silver Bells"
    PERFORMER "Geoff Tate, Carlos Cavazo, James Lomenzo, Ray Luzier"
    INDEX 01 00:00:00
FILE "06 - Doug Pinnick, George Lynch, Billy Sheehan, Simon Phillips - Little Drummer Boy.wav" WAVE
  TRACK 06 AUDIO
    TITLE "Little Drummer Boy"
    PERFORMER "Doug Pinnick, George Lynch, Billy Sheehan, Simon Phillips"
    INDEX 01 00:00:00
FILE "07 - Tim ''Ripper'' Owens, Steve Morse, Juan Garcia, Marco Mendoza, Vinny Appice - Santa Claus Is Back In Town.wav" WAVE
  TRACK 07 AUDIO
    TITLE "Santa Claus Is Back In Town"
    PERFORMER "Tim 'Ripper' Owens, Steve Morse, Juan Garcia, Marco Mendoza, Vinny Appice"
    INDEX 01 00:00:00
FILE "08 - Chuck Billy, Scott Ian, Jon Donais, Chris Wyse, John Tempesta - Silent Night.wav" WAVE
  TRACK 08 AUDIO
    TITLE "Silent Night"
    PERFORMER "Chuck Billy, Scott Ian, Jon Donais, Chris Wyse, John Tempesta"
    INDEX 01 00:00:00
FILE "09 - Oni Logan, Craig Goldy, Tony Franklin, John Tempesta - Deck The Halls.wav" WAVE
  TRACK 09 AUDIO
    TITLE "Deck The Halls"
    PERFORMER "Oni Logan, Craig Goldy, Tony Franklin, John Tempesta"
    INDEX 01 00:00:00
FILE "10 - Stephen Pearcy, Tracii Guns, Bob Kulick, Billy Sheehan, Greg Bissonette - Grandma Got Ran Over By A Reindeer.wav" WAVE
  TRACK 10 AUDIO
    TITLE "Grandma Got Ran Over By A Reindeer"
    PERFORMER "Stephen Pearcy, Tracii Guns, Bob Kulick, Billy Sheehan, Greg Bissonette"
    INDEX 01 00:00:00
FILE "11 - Joe Lynn Turner, Bruce Kulick, Bob Kulick, Rudy Sarzo, Simon Wright - Rockin' Around The Xmas Tree.wav" WAVE
  TRACK 11 AUDIO
    TITLE "Rockin' Around The Xmas Tree"
    PERFORMER "Joe Lynn Turner, Bruce Kulick, Bob Kulick, Rudy Sarzo, Simon Wright"
    INDEX 01 00:00:00
FILE "12 - Tommy Shaw, Steve Lukather, Marco Mendoza, Kenny Aronoff - Happy Xmas (War Is Over).wav" WAVE
  TRACK 12 AUDIO
    TITLE "Happy Xmas (War Is Over)"
    PERFORMER "Tommy Shaw, Steve Lukather, Marco Mendoza, Kenny Aronoff"
    INDEX 01 00:00:00
сборник рождественских песен, исполнынных известными рок и метал музыкантами.
[email protected]
 
Не забывайте говорить Спасибо. Не уходите с раздачи!   
Торрент: Зарегистрирован [07 окт 2014, 07:42] Для скачивания .torrent
необходима регистрация
Или скачать с помощью
MediaGet
Статус:
Проверен
 
.torrent скачан: 0 раз
Хэш: 619cfd2f862145f163ab90f2f12359f7671c9c0e
Размер: 479.72 МБ (503 025 078 байт)
Стать Автором раздачи
 
 
Раздал: 6.67 ГБ
Скачал: 302.5 МБ
Ратио: 22.576
Сообщения: 374198
Зарегистрирован: 17 апр 2014, 11:05


  • Похожие торренты
    Ответы
    Просмотры
    Последнее сообщение

Вернуться в Сборники "Зарубежный Metal" (lossless)

Ресурс не предоставляет электронные версии произведений, а занимается лишь коллекционированием и каталогизацией ссылок, присылаемых и публикуемых на форуме нашими читателями. Если вы являетесь правообладателем какого-либо представленного материала и не желаете чтобы ссылка на него находилась в нашем каталоге, свяжитесь с нами и мы незамедлительно удалим её. Файлы для обмена на трекере предоставлены пользователями сайта, и администрация не несёт ответственности за их содержание. Просьба не заливать файлы, защищенные авторскими правами, а также файлы нелегального содержания!
cron