(Heavy Metal/Hard Rock) Various Artists - Randy Rhoads Tribute - 2000, APE (image+.cue), lossless

 
 Статистика раздачи 
Размер: 404.4 МБ   |  Зарегистрирован: 07 окт 2014, 07:43   |   .torrent скачан: 2 раз
Сидеров: 1  [ 0 байт/сек ]     Личеров: 0  [ 0 байт/сек ]  
  

(Heavy Metal/Hard Rock) Various Artists - Randy Rhoads Tribute - 2000, APE (image+.cue), lossless

Сообщение Thistoll » 07 окт 2014, 07:43

Various Artists - Randy Rhoads Tribute

Жанр: Heavy Metal/Hard Rock
Год выпуска диска: 2000
Производитель диска: Japan
Аудио кодек: APE
Тип рипа: image+.cue
Битрейт аудио: lossless
Продолжительность: 52:07

Трэклист:

01. I Don't Know [0:05:08.52]
02. Crazy Train [0:05:01.60]
03. Goodbye To Romance [0:05:30.53]
04. Mr. Crowley [0:05:05.12]
05. Revelation (Mother Earth) [0:06:07.43]
06. Over The Mountain [0:04:28.22]
07. Flying High Again [0:04:31.10]
08. Believer [0:05:36.08]
09. S.A.T.O [0:04:20.57]
10. Diary Of A Madman [0:06:17.20]

Доп. информация:
Код: Выделить всё
Exact Audio Copy V0.99 prebeta 4 from 23. January 2008

Отчёт EAC об извлечении, выполненном 25. апреля 2010, 9:25

Various Artists / Randy Rhoads Tribute

Дисковод: Optiarc DVD RW AD-7173S   Adapter: 3  ID: 0

Режим чтения                 : Достоверность
Использование точного потока : Да
Отключение кэша аудио        : Да
Использование указателей C2  : Нет

Коррекция смещения при чтении                     : 48
Способность читать области Lead-in и Lead-out     : Нет
Заполнение пропущенных сэмплов тишиной            : Да
Удаление блоков с тишиной в начале и конце        : Нет
При вычислениях CRC использовались нулевые сэмплы : Да
Интерфейс                                         : Встроенный Win32-интерфейс для Win NT/2000

Выходной формат          : Monkey's Audio (без потерь)
Выбранный битрейт        : Normal Lossless Compression
Качество                 : Высокий
Добавление ID3-тэга      : Нет
Утилита сжатия           : C:\Program Files\Monkey's Audio\MAC.exe

TOC извлечённого CD

     Трек |   Старт  | Длительность | Начальный сектор | Конечный сектор
    ---------------------------------------------------------------------
       1  |  0:00.00 |    5:08.52   |           0      |      23151
       2  |  5:08.52 |    5:01.60   |       23152      |      45786
       3  | 10:10.37 |    5:30.53   |       45787      |      70589
       4  | 15:41.15 |    5:05.12   |       70590      |      93476
       5  | 20:46.27 |    6:07.43   |       93477      |     121044
       6  | 26:53.70 |    4:28.22   |      121045      |     141166
       7  | 31:22.17 |    4:31.10   |      141167      |     161501
       8  | 35:53.27 |    5:36.08   |      161502      |     186709
       9  | 41:29.35 |    4:20.57   |      186710      |     206266
      10  | 45:50.17 |    6:17.20   |      206267      |     234561

Характеристики диапазона извлечения и сообщения об ошибках

Выбранный диапазон

     Имя файла H:\Music\Various Artists - Randy Rhoads Tribute 2000\Various Artists - Randy Rhoads Tribute.wav

     Пиковый уровень 100.0 %
     Качество диапазона 100.0 %
     CRC копии FA5890FD
     Копирование... OK

Ошибок не произошло

Конец отчёта
Cобственный рип с оригинального диска.
 
Не забывайте говорить Спасибо. Не уходите с раздачи!   
Торрент: Зарегистрирован [07 окт 2014, 07:43] Для скачивания .torrent
необходима регистрация
Или скачать с помощью
MediaGet
Статус:
Проверен
 
.torrent скачан: 2 раз
Хэш: db65047a7f5836a3225321a932efc56686eff9f3
Размер: 404.4 МБ (424 042 621 байт)
Стать Автором раздачи
 
 
Раздал: 6.67 ГБ
Скачал: 302.5 МБ
Ратио: 22.576
Сообщения: 374198
Зарегистрирован: 17 апр 2014, 11:05


  • Похожие торренты
    Ответы
    Просмотры
    Последнее сообщение

Вернуться в Сборники "Зарубежный Metal" (lossless)

Ресурс не предоставляет электронные версии произведений, а занимается лишь коллекционированием и каталогизацией ссылок, присылаемых и публикуемых на форуме нашими читателями. Если вы являетесь правообладателем какого-либо представленного материала и не желаете чтобы ссылка на него находилась в нашем каталоге, свяжитесь с нами и мы незамедлительно удалим её. Файлы для обмена на трекере предоставлены пользователями сайта, и администрация не несёт ответственности за их содержание. Просьба не заливать файлы, защищенные авторскими правами, а также файлы нелегального содержания!
cron