(Death Metal, Black Metal, Thrash Metal) VA - Metal Militia - A Tribute To Metallica - 1994(Reissued-2005), FLAC (image+.cue), lossless

 
 Статистика раздачи 
Размер: 467.98 МБ   |  Зарегистрирован: 07 окт 2014, 07:44   |   .torrent скачан: 0 раз
Сидеров: 1  [ 0 байт/сек ]     Личеров: 0  [ 0 байт/сек ]  
  

(Death Metal, Black Metal, Thrash Metal) VA - Metal Militia - A Tribute To Metallica - 1994(Reissued-2005), FLAC (image+.cue), lossless

Сообщение Thistoll » 07 окт 2014, 07:44

Metal Militia - A Tribute To Metallica

Жанр: Death Metal, Black Metal, Thrash Metal
Страна-производитель диска: Russia
Год издания: 1994(Reissued-2005)
Издатель (лейбл): CD-Maximum
Номер по каталогу: CDM 0605-2304
Аудиокодек: FLAC (*.flac)
Тип рипа: image+.cue
Битрейт аудио: lossless
Продолжительность: 59:10
Источник (релизер): inotuh ( ему спасибо )
Наличие сканов в содержимом раздачи: да
Треклист:

1. Sarcazm – Motorbreath
2. Luciferion – Fight Fire With Fire
3. Idiots Rule – For Whom The Bells Tolls
4. Miscreant – Fade To Black
5. Snotrocket – Escape
6. Pagandom – Battery
7. Flegma – The Thing That Should Not Be
8. Ceremonial Oath – Disposable Heroes
9. Afflicted - Leper Messiah
10. Crystal Age – Damage, Inc.
11. In Flames – Eye Of The Beholder
12. Dark Tranquillity – My Friend Of Misery
Код: Выделить всё
Exact Audio Copy V1.0 beta 3 from 29. August 2011

EAC extraction logfile from 27. October 2012, 23:40

VA / Metal Militia - A Tribute To Metallica

Used drive  : Optiarc DVD RW AD-7173A   Adapter: 0  ID: 0

Read mode               : Secure
Utilize accurate stream : Yes
Defeat audio cache      : Yes
Make use of C2 pointers : No

Read offset correction                      : 48
Overread into Lead-In and Lead-Out          : No
Fill up missing offset samples with silence : Yes
Delete leading and trailing silent blocks   : No
Null samples used in CRC calculations       : Yes
Used interface                              : Native Win32 interface for Win NT & 2000

Used output format              : User Defined Encoder
Selected bitrate                : 1024 kBit/s
Quality                         : High
Add ID3 tag                     : No
Command line compressor         : C:\Program Files\Exact Audio Copy\FLAC\FLAC.EXE
Additional command line options : -V -8 -T "Date=%year%" -T "Genre=%genre%" %source%

TOC of the extracted CD

     Track |   Start  |  Length  | Start sector | End sector
    ---------------------------------------------------------
        1  |  0:00.00 |  2:38.22 |         0    |    11871
        2  |  2:38.22 |  3:43.35 |     11872    |    28631
        3  |  6:21.57 |  4:44.18 |     28632    |    49949
        4  | 11:06.00 |  5:52.30 |     49950    |    76379
        5  | 16:58.30 |  4:42.40 |     76380    |    97569
        6  | 21:40.70 |  4:33.32 |     97570    |   118076
        7  | 26:14.27 |  5:21.10 |    118077    |   142161
        8  | 31:35.37 |  7:28.08 |    142162    |   175769
        9  | 39:03.45 |  5:06.00 |    175770    |   198719
       10  | 44:09.45 |  4:02.07 |    198720    |   216876
       11  | 48:11.52 |  5:32.38 |    216877    |   241814
       12  | 53:44.15 |  5:25.62 |    241815    |   266251

Range status and errors

Selected range

     Filename C:\Documents and Settings\Inotuh\Рабочий стол\VA - Metal Militia - A Tribute To Metallica.wav

     Peak level 99.2 %
     Extraction speed 1.6 X
     Range quality 99.9 %
     Test CRC F6A1F766
     Copy CRC F6A1F766
     Copy OK

No errors occurred

AccurateRip summary

Track  1  cannot be verified as accurate (confidence 7)  [21E374B8], AccurateRip returned [7DD18088]  (AR v2)
Track  2  cannot be verified as accurate (confidence 7)  [905B2683], AccurateRip returned [549B9567]  (AR v2)
Track  3  cannot be verified as accurate (confidence 7)  [3A9C6E04], AccurateRip returned [DDC6F8F2]  (AR v2)
Track  4  cannot be verified as accurate (confidence 7)  [D45EFBAF], AccurateRip returned [BAD670B3]  (AR v2)
Track  5  cannot be verified as accurate (confidence 7)  [53797F54], AccurateRip returned [C4DD0214]  (AR v2)
Track  6  cannot be verified as accurate (confidence 7)  [6873BCDE], AccurateRip returned [FAFF0435]  (AR v2)
Track  7  cannot be verified as accurate (confidence 7)  [20303AA1], AccurateRip returned [7C464CFA]  (AR v2)
Track  8  cannot be verified as accurate (confidence 7)  [B5E47386], AccurateRip returned [08DEAD0E]  (AR v2)
Track  9  cannot be verified as accurate (confidence 7)  [A53482BF], AccurateRip returned [A37623DE]  (AR v2)
Track 10  cannot be verified as accurate (confidence 7)  [54A347B7], AccurateRip returned [5DF49F5E]  (AR v2)
Track 11  cannot be verified as accurate (confidence 7)  [E5338ABD], AccurateRip returned [16626667]  (AR v2)
Track 12  cannot be verified as accurate (confidence 7)  [9B7F17A7], AccurateRip returned [833E4F67]  (AR v2)

No tracks could be verified as accurate
You may have a different pressing from the one(s) in the database

End of status report

==== Log checksum 7F3D7211F470A2AC025C072CFB8896186C70E7091978FE1CB86AC53D080F2851 ====
On the 20th anniversary of the release of Metallica's … AND JUSTICE FOR ALL, Candlelight Records commemorates the band’s achievements with METAL MILITIA: A TRIBUTE TO METALLICA. Originally released as a demo showcase in 1994 through Black Sun Records, METAL MILITIA features 12 tracks by then budding Swedish metal bands paying homage to one of their major influences. Included are early recordings by such influential acts as Luciferion, Ceremonial Oath (featuring future members of In Flames and Tiamat), Crystal Age (featuring future members of Hammerfall and Evergrey), Dark Tranquillity, and In Flames.
 
Не забывайте говорить Спасибо. Не уходите с раздачи!   
Торрент: Зарегистрирован [07 окт 2014, 07:44] Для скачивания .torrent
необходима регистрация
Или скачать с помощью
MediaGet
Статус:
Проверен
 
.torrent скачан: 0 раз
Хэш: c92c4e476dc4493ce5aa59de1a8c0456c7e19649
Размер: 467.98 МБ (490 714 472 байт)
Стать Автором раздачи
 
 
Раздал: 6.67 ГБ
Скачал: 302.5 МБ
Ратио: 22.576
Сообщения: 374198
Зарегистрирован: 17 апр 2014, 11:05


  • Похожие торренты
    Ответы
    Просмотры
    Последнее сообщение

Вернуться в Сборники "Зарубежный Metal" (lossless)

Ресурс не предоставляет электронные версии произведений, а занимается лишь коллекционированием и каталогизацией ссылок, присылаемых и публикуемых на форуме нашими читателями. Если вы являетесь правообладателем какого-либо представленного материала и не желаете чтобы ссылка на него находилась в нашем каталоге, свяжитесь с нами и мы незамедлительно удалим её. Файлы для обмена на трекере предоставлены пользователями сайта, и администрация не несёт ответственности за их содержание. Просьба не заливать файлы, защищенные авторскими правами, а также файлы нелегального содержания!
cron