(Thrash Metal) VA - Matenlos A Todos - Tributo Argentino A Metallica (Reissued-2011) - 2003, FLAC (image+.cue), lossless

 
 Статистика раздачи 
Размер: 599.32 МБ   |  Зарегистрирован: 07 окт 2014, 07:44   |   .torrent скачан: 0 раз
Сидеров: 1  [ 0 байт/сек ]     Личеров: 0  [ 0 байт/сек ]  
  

(Thrash Metal) VA - Matenlos A Todos - Tributo Argentino A Metallica (Reissued-2011) - 2003, FLAC (image+.cue), lossless

Сообщение Thistoll » 07 окт 2014, 07:44

Matenlos A Todos / Tributo Argentino A Metallica (Reissued-2011)

Жанр: Thrash Metal
Страна-производитель диска: Argentina
Год издания: 2003 (2011)
Издатель (лейбл): 2M Producciones
Номер по каталогу: 2M001
Страна: Argentina
Аудиокодек: FLAC (*.flac)
Тип рипа: image+.cue
Битрейт аудио: lossless
Продолжительность: 01:17:28
Источник (релизер): Rivfader (MMT)
Наличие сканов в содержимом раздачи: да
Треклист:
01. Horcas - Creeping Death 06:44
02. Humanimal - Welcome Home (Sanitarium) 06:20
03. Buffalo - The Four Horsemen 07:51
04. Jason - Until It Sleep 04:36
05. Letargo - Blackened 06:45
06. Lorihen - Through The Never 03:50
07. Carnarium - Fade To Black 06:43
08. Serpentor - Battery 05:17
09. Atavica - One 04:52
10. Cuero - Master Of Puppets 08:33
11. Tren Loco - For Whom The Bell Tolls 04:46
12. Daniel Telis Project - To Live Is To Die 04:45
13. Kamikaze - Seek And Destroy 06:27
Код: Выделить всё
Exact Audio Copy V1.0 beta 3 from 29. August 2011

EAC extraction logfile from 17. August 2013, 22:52

VV.AA. / Matenlos A Todos - Tributo Argentino a Metallica

Used drive  : TSSTcorpCDDVDW SE-S084F   Adapter: 4  ID: 3

Read mode               : Secure
Utilize accurate stream : Yes
Defeat audio cache      : Yes
Make use of C2 pointers : No

Read offset correction                      : 6
Overread into Lead-In and Lead-Out          : No
Fill up missing offset samples with silence : Yes
Delete leading and trailing silent blocks   : No
Null samples used in CRC calculations       : Yes
Used interface                              : Native Win32 interface for Win NT & 2000

Used output format              : User Defined Encoder
Selected bitrate                : 32 kBit/s
Quality                         : High
Add ID3 tag                     : Yes
Command line compressor         : C:\Program Files (x86)\Exact Audio Copy\FLAC.EXE
Additional command line options : -8 -V -T "ARTIST=%artist%" -T "TITLE=%title%" -T "ALBUM=%albumtitle%" -T "DATE=%year%" -T "TRACKNUMBER=%tracknr%" -T "GENRE=%genre%" -T "COMMENT=%comment%" %source% -o %dest%

TOC of the extracted CD

     Track |   Start  |  Length  | Start sector | End sector
    ---------------------------------------------------------
        1  |  0:00.00 |  6:44.09 |         0    |    30308
        2  |  6:44.09 |  6:19.48 |     30309    |    58781
        3  | 13:03.57 |  7:50.48 |     58782    |    94079
        4  | 20:54.30 |  4:35.55 |     94080    |   114759
        5  | 25:30.10 |  6:44.66 |    114760    |   145125
        6  | 32:15.01 |  3:49.74 |    145126    |   162374
        7  | 36:05.00 |  6:43.14 |    162375    |   192613
        8  | 42:48.14 |  5:17.12 |    192614    |   216400
        9  | 48:05.26 |  4:52.04 |    216401    |   238304
       10  | 52:57.30 |  8:32.57 |    238305    |   276761
       11  | 61:30.12 |  4:45.44 |    276762    |   298180
       12  | 66:15.56 |  4:45.22 |    298181    |   319577
       13  | 71:01.03 |  6:26.74 |    319578    |   348601

Range status and errors

Selected range

     Filename H:\MUSIC\Rivfader [MeTaLMaDNeSS.TeaM]\VV.AA. - Matenlos A Todos - Tributo Argentino a Metallica.wav

     Peak level 97.7 %
     Extraction speed 2.2 X
     Range quality 99.9 %
     Test CRC 1A788E8B
     Copy CRC 1A788E8B
     Copy OK

No errors occurred

AccurateRip summary

Track  1  not present in database
Track  2  not present in database
Track  3  not present in database
Track  4  not present in database
Track  5  not present in database
Track  6  not present in database
Track  7  not present in database
Track  8  not present in database
Track  9  not present in database
Track 10  not present in database
Track 11  not present in database
Track 12  not present in database
Track 13  not present in database

None of the tracks are present in the AccurateRip database

End of status report

---- CUETools DB Plugin V2.1.3

[CTDB TOCID: Jw0raE13BfhTEvejCxxb.aRTAQs-] disk not present in database, Submit result: database access error: Anulada la solicitud: La solicitud fue cancelada.

==== Log checksum 8A90CD0248BA6D355197CD1A3C3C7B2CD104E51E314D005FAC229CA147DBA46B ====
 
Не забывайте говорить Спасибо. Не уходите с раздачи!   
Торрент: Зарегистрирован [07 окт 2014, 07:44] Для скачивания .torrent
необходима регистрация
Или скачать с помощью
MediaGet
Статус:
Проверен
 
.torrent скачан: 0 раз
Хэш: 31c370a0944686484c99968dc73ae1ad9538db27
Размер: 599.32 МБ (628 433 467 байт)
Стать Автором раздачи
 
 
Раздал: 6.67 ГБ
Скачал: 302.5 МБ
Ратио: 22.576
Сообщения: 374198
Зарегистрирован: 17 апр 2014, 11:05


  • Похожие торренты
    Ответы
    Просмотры
    Последнее сообщение

Вернуться в Сборники "Зарубежный Metal" (lossless)

Ресурс не предоставляет электронные версии произведений, а занимается лишь коллекционированием и каталогизацией ссылок, присылаемых и публикуемых на форуме нашими читателями. Если вы являетесь правообладателем какого-либо представленного материала и не желаете чтобы ссылка на него находилась в нашем каталоге, свяжитесь с нами и мы незамедлительно удалим её. Файлы для обмена на трекере предоставлены пользователями сайта, и администрация не несёт ответственности за их содержание. Просьба не заливать файлы, защищенные авторскими правами, а также файлы нелегального содержания!
cron