(Heavy Metal) VA - Loud Music For Loud People Vol. One (Opeth, Godflesh, Sugarcoma, etc.) - 2002, FLAC (tracks), lossless

 
 Статистика раздачи 
Размер: 305.79 МБ   |  Зарегистрирован: 07 окт 2014, 07:44   |   .torrent скачан: 0 раз
Сидеров: 1  [ 0 байт/сек ]     Личеров: 0  [ 0 байт/сек ]  
  

(Heavy Metal) VA - Loud Music For Loud People Vol. One (Opeth, Godflesh, Sugarcoma, etc.) - 2002, FLAC (tracks), lossless

Сообщение Thistoll » 07 окт 2014, 07:44

VA - Loud Music For Loud People Vol. One (Opeth, Godflesh, Sugarcoma, etc.)

Жанр: Heavy Metal
Год выпуска диска: 2002
Производитель диска: USA
Аудио кодек: FLAC
Тип рипа: tracks
Битрейт аудио: lossless
Продолжительность: 44 min
Трэклист:
01. Opeth - The Drapery Falls (Radio Edit)
02. Entombed - Chief Rebel Angel (Live)
03. Godflesh - If I Could Only Be What You Want
04. Anathema - Pressure (Radio Edit)
05. Opeth - Patterns In The Ivy 2
06. Sugarcoma - Zero Star
07. Inme - Crushed Like Fruit
08. Spiritual Beggars - Street Fighting Saviours
09. Amplifier - UFO's
10. Stabb - This Joke's On Me
11. Pablo - Y Byron
Exact Audio Copy V0.99 prebeta 5 from 4. May 2009

Отчёт EAC об извлечении, выполненном 26. ноября 2009, 12:12

Various / Loud Music For Loud People Vol. One

Дисковод: Optiarc DVD RW AD-5170A Adapter: 0 ID: 0

Режим чтения : Достоверность
Использование точного потока : Да
Отключение кэша аудио : Да
Использование указателей C2 : Нет

Коррекция смещения при чтении : 48
Способность читать области Lead-in и Lead-out : Нет
Заполнение пропущенных сэмплов тишиной : Да
Удаление блоков с тишиной в начале и конце : Нет
При вычислениях CRC использовались нулевые сэмплы : Да
Интерфейс : Встроенный Win32-интерфейс для Win NT/2000
Обработка зазоров : Не обнаружено, добавлено к предыдущему треку

Выходной формат : Внутренние WAV-операции
Формат сэмплов : 44.100 Гц; 16 бит; стерео

TOC извлечённого CD

Трек | Старт | Длительность | Начальный сектор | Конечный сектор
---------------------------------------------------------------------
1 | 0:00.00 | 5:06.13 | 0 | 22962
2 | 5:06.13 | 3:46.56 | 22963 | 39968
3 | 8:52.69 | 5:04.40 | 39969 | 62808
4 | 13:57.34 | 4:05.37 | 62809 | 81220
5 | 18:02.71 | 4:10.61 | 81221 | 100031
6 | 22:13.57 | 3:12.42 | 100032 | 114473
7 | 25:26.24 | 3:20.01 | 114474 | 129474
8 | 28:46.25 | 4:24.69 | 129475 | 149343
9 | 33:11.19 | 5:33.38 | 149344 | 174356
10 | 38:44.57 | 2:15.16 | 174357 | 184497
11 | 40:59.73 | 3:17.66 | 184498 | 199338
12 | 46:49.64 | 5:33.25 | 210739 | 235738

Трек 1

Имя файла D:\VA\Loud Music For Loud People Vol. One\Opeth - The Drapery Falls (Radio Edit).wav

Пиковый уровень 98.7 %
Качество трека 99.9 %
CRC теста E648F454
CRC копии E648F454
Трек не обнаружен в базе AccurateRip
Копирование... OK

Трек 2

Имя файла D:\VA\Loud Music For Loud People Vol. One\Entombed - Chief Rebel Angel (Live).wav

Пиковый уровень 99.9 %
Качество трека 100.0 %
CRC теста F414BB91
CRC копии F414BB91
Трек не обнаружен в базе AccurateRip
Копирование... OK

Трек 3

Имя файла D:\VA\Loud Music For Loud People Vol. One\Godflesh - If I Could Only Be What You Want.wav

Пиковый уровень 100.0 %
Качество трека 100.0 %
CRC теста 66DE2610
CRC копии 66DE2610
Трек не обнаружен в базе AccurateRip
Копирование... OK

Трек 4

Имя файла D:\VA\Loud Music For Loud People Vol. One\Anathema - Pressure (Radio Edit).wav

Пиковый уровень 99.9 %
Качество трека 100.0 %
CRC теста 91E847A2
CRC копии 91E847A2
Трек не обнаружен в базе AccurateRip
Копирование... OK

Трек 5

Имя файла D:\VA\Loud Music For Loud People Vol. One\Opeth - Patterns In The Ivy 2.wav

Пиковый уровень 99.8 %
Качество трека 100.0 %
CRC теста 929EEBF5
CRC копии 929EEBF5
Трек не обнаружен в базе AccurateRip
Копирование... OK

Трек 6

Имя файла D:\VA\Loud Music For Loud People Vol. One\Sugarcoma - Zero Star.wav

Пиковый уровень 97.8 %
Качество трека 100.0 %
CRC теста D0925CF0
CRC копии D0925CF0
Трек не обнаружен в базе AccurateRip
Копирование... OK

Трек 7

Имя файла D:\VA\Loud Music For Loud People Vol. One\Inme - Crushed Like Fruit.wav

Пиковый уровень 99.8 %
Качество трека 100.0 %
CRC теста F72899C1
CRC копии F72899C1
Трек не обнаружен в базе AccurateRip
Копирование... OK

Трек 8

Имя файла D:\VA\Loud Music For Loud People Vol. One\Spiritual Beggars - Street Fighting Saviours.wav

Пиковый уровень 98.8 %
Качество трека 100.0 %
CRC теста 28F6B888
CRC копии 28F6B888
Трек не обнаружен в базе AccurateRip
Копирование... OK

Трек 9

Имя файла D:\VA\Loud Music For Loud People Vol. One\Amplifier - UFO's.wav

Пиковый уровень 100.0 %
Качество трека 100.0 %
CRC теста 5BA082A3
CRC копии 5BA082A3
Трек не обнаружен в базе AccurateRip
Копирование... OK

Трек 10

Имя файла D:\VA\Loud Music For Loud People Vol. One\Stabb - This Joke's On Me.wav

Пиковый уровень 99.7 %
Качество трека 100.0 %
CRC теста 7BFB64C3
CRC копии 7BFB64C3
Трек не обнаружен в базе AccurateRip
Копирование... OK

Трек 11

Имя файла D:\VA\Loud Music For Loud People Vol. One\Pablo - Y Byron.wav

Пиковый уровень 99.4 %
Качество трека 97.4 %
CRC теста CFF66446
CRC копии CFF66446
Трек не обнаружен в базе AccurateRip
Копирование... OK

Ни одного трека нет в базе AccurateRip

Ошибок не произошло

Конец отчёта
 
Не забывайте говорить Спасибо. Не уходите с раздачи!   
Торрент: Зарегистрирован [07 окт 2014, 07:44] Для скачивания .torrent
необходима регистрация
Или скачать с помощью
MediaGet
Статус:
Проверен
 
.torrent скачан: 0 раз
Хэш: 693024956803226d719879152d2ce8842c48f96e
Размер: 305.79 МБ (320 641 846 байт)
Стать Автором раздачи
 
 
Раздал: 6.67 ГБ
Скачал: 302.5 МБ
Ратио: 22.576
Сообщения: 374198
Зарегистрирован: 17 апр 2014, 11:05


  • Похожие торренты
    Ответы
    Просмотры
    Последнее сообщение

Вернуться в Сборники "Зарубежный Metal" (lossless)

Ресурс не предоставляет электронные версии произведений, а занимается лишь коллекционированием и каталогизацией ссылок, присылаемых и публикуемых на форуме нашими читателями. Если вы являетесь правообладателем какого-либо представленного материала и не желаете чтобы ссылка на него находилась в нашем каталоге, свяжитесь с нами и мы незамедлительно удалим её. Файлы для обмена на трекере предоставлены пользователями сайта, и администрация не несёт ответственности за их содержание. Просьба не заливать файлы, защищенные авторскими правами, а также файлы нелегального содержания!
cron