(Thrash, Metalcore, Death Metal, Progressive Metal) VA - Metal Hammer #242: Anger Management - 2013, FLAC (tracks+.cue), lossless

 
 Статистика раздачи 
Размер: 448.58 МБ   |  Зарегистрирован: 07 окт 2014, 07:45   |   .torrent скачан: 0 раз
Сидеров: 1  [ 0 байт/сек ]     Личеров: 0  [ 0 байт/сек ]  
  

(Thrash, Metalcore, Death Metal, Progressive Metal) VA - Metal Hammer #242: Anger Management - 2013, FLAC (tracks+.cue), lossless

Сообщение Thistoll » 07 окт 2014, 07:45

Metal Hammer #242: Anger Management

Жанр: Thrash, Metalcore, Death Metal, Progressive Metal
Страна-производитель диска: EU
Год издания: 2013
Издатель (лейбл): Future Publishing
Номер по каталогу: MHR242CD1/04/13
Аудиокодек: FLAC (*.flac)
Тип рипа: tracks+.cue
Битрейт аудио: lossless
Продолжительность: 01:00:05
Источник (релизер): диск
Наличие сканов в содержимом раздачи: да

Треклист:

01. Your Demise – Karma (3:20)
02. Dishonour the Crown – Gone to the Dogs (3:04)
03. The Omega Experiment – Karma (7:56)
04. Waking Theo – Downcast (4:20)
05. Baby Godzilla – Braille for an Axeman (3:27)
06. Odessa – Path of Frustration (3:27)
07. Brutality Will Prevail – Second Sight (3:28)
08. Bossk – Pick Up Artist (7:46)
09. The Earls of Mars – The Mirrored Staircase (5:02)
10. The Charm the Fury – Virtue of Leadership (3:35)
11. Born of Ruin – Zodiark (3:29)
12. Anacondas – Cold Blooded, Warm Hearted (3:24)
13. Desolated – Betrayal (2:54)
14. Dead Hearts – Leech (3:19)
15. Figths & Fires – You Don’t Always Reap What You Sow (1:36)
Код: Выделить всё
Exact Audio Copy V1.0 beta 3 from 29. August 2011

EAC extraction logfile from 24. April 2013, 17:34

VA / Anger Management

Used drive  : ATAPI   iHAS120   X   Adapter: 6  ID: 0

Read mode               : Secure
Utilize accurate stream : Yes
Defeat audio cache      : Yes
Make use of C2 pointers : No

Read offset correction                      : 48
Overread into Lead-In and Lead-Out          : No
Fill up missing offset samples with silence : Yes
Delete leading and trailing silent blocks   : No
Null samples used in CRC calculations       : Yes
Used interface                              : Native Win32 interface for Win NT & 2000
Gap handling                                : Appended to previous track

Used output format              : User Defined Encoder
Selected bitrate                : 128 kBit/s
Quality                         : High
Add ID3 tag                     : No
Command line compressor         : C:\Program Files\Exact Audio Copy\Flac\flac.exe
Additional command line options : -V -8 -T "Genre=%genre%" -T "Artist=%artist%" -T "Title=%title%" -T "Album=%albumtitle%" -T "Date=%year%" -T "Tracknumber=%tracknr%" -T "Comment=%comment%" %source%

TOC of the extracted CD

     Track |   Start  |  Length  | Start sector | End sector
    ---------------------------------------------------------
        1  |  0:00.00 |  3:20.29 |         0    |    15028
        2  |  3:20.29 |  3:03.49 |     15029    |    28802
        3  |  6:24.03 |  7:56.07 |     28803    |    64509
        4  | 14:20.10 |  4:19.35 |     64510    |    83969
        5  | 18:39.45 |  3:27.34 |     83970    |    99528
        6  | 22:07.04 |  3:27.11 |     99529    |   115064
        7  | 25:34.15 |  3:28.33 |    115065    |   130697
        8  | 29:02.48 |  7:45.34 |    130698    |   165606
        9  | 36:48.07 |  5:01.58 |    165607    |   188239
       10  | 41:49.65 |  3:34.53 |    188240    |   204342
       11  | 45:24.43 |  3:28.58 |    204343    |   220000
       12  | 48:53.26 |  3:23.57 |    220001    |   235282
       13  | 52:17.08 |  2:53.38 |    235283    |   248295
       14  | 55:10.46 |  3:19.18 |    248296    |   263238
       15  | 58:29.64 |  1:35.47 |    263239    |   270410

Track  1

     Filename D:\zzz\Anger Management\01. Your Demise - Karma.wav

     Pre-gap length  0:00:02.00

     Peak level 98.8 %
     Extraction speed 2.2 X
     Track quality 100.0 %
     Test CRC 0F97A6B7
     Copy CRC 0F97A6B7
     Track not present in AccurateRip database
     Copy OK

Track  2

     Filename D:\zzz\Anger Management\02. Dishonour the Crown - Gone to the Dogs.wav

     Peak level 100.0 %
     Extraction speed 2.4 X
     Track quality 100.0 %
     Test CRC 1DEC3008
     Copy CRC 1DEC3008
     Track not present in AccurateRip database
     Copy OK

Track  3

     Filename D:\zzz\Anger Management\03. The Omega Experiment - Karma.wav

     Peak level 99.9 %
     Extraction speed 2.8 X
     Track quality 99.9 %
     Test CRC 642ACC29
     Copy CRC 642ACC29
     Track not present in AccurateRip database
     Copy OK

Track  4

     Filename D:\zzz\Anger Management\04. Waking Theo - Downcast.wav

     Peak level 99.1 %
     Extraction speed 3.2 X
     Track quality 100.0 %
     Test CRC B7A7F9C1
     Copy CRC B7A7F9C1
     Track not present in AccurateRip database
     Copy OK

Track  5

     Filename D:\zzz\Anger Management\05. Baby Godzilla - Braille for an Axeman.wav

     Peak level 97.7 %
     Extraction speed 2.8 X
     Track quality 99.9 %
     Test CRC D2F56BD5
     Copy CRC D2F56BD5
     Track not present in AccurateRip database
     Copy OK

Track  6

     Filename D:\zzz\Anger Management\06. Odessa - Path of Frustration.wav

     Peak level 96.7 %
     Extraction speed 3.0 X
     Track quality 99.9 %
     Test CRC CBA99E43
     Copy CRC CBA99E43
     Track not present in AccurateRip database
     Copy OK

Track  7

     Filename D:\zzz\Anger Management\07. Brutality Will Prevail - Second Sight.wav

     Peak level 99.1 %
     Extraction speed 3.5 X
     Track quality 100.0 %
     Test CRC F52EF179
     Copy CRC F52EF179
     Track not present in AccurateRip database
     Copy OK

Track  8

     Filename D:\zzz\Anger Management\08. Bossk - Pick Up Artist.wav

     Peak level 100.0 %
     Extraction speed 3.9 X
     Track quality 99.9 %
     Test CRC A2D3C1A6
     Copy CRC A2D3C1A6
     Track not present in AccurateRip database
     Copy OK

Track  9

     Filename D:\zzz\Anger Management\09. The Earls of Mars - The Mirrored Staircase.wav

     Peak level 100.0 %
     Extraction speed 3.8 X
     Track quality 99.9 %
     Test CRC C89DD025
     Copy CRC C89DD025
     Track not present in AccurateRip database
     Copy OK

Track 10

     Filename D:\zzz\Anger Management\10. The Charm the Fury - Virtue of Leadership.wav

     Peak level 100.0 %
     Extraction speed 4.2 X
     Track quality 100.0 %
     Test CRC 09D3F664
     Copy CRC 09D3F664
     Track not present in AccurateRip database
     Copy OK

Track 11

     Filename D:\zzz\Anger Management\11. Born of Ruin - Zodiark.wav

     Peak level 85.4 %
     Extraction speed 4.3 X
     Track quality 100.0 %
     Test CRC 4ED2E6C9
     Copy CRC 4ED2E6C9
     Track not present in AccurateRip database
     Copy OK

Track 12

     Filename D:\zzz\Anger Management\12. Anacondas - Cold Blooded, Warm Hearted.wav

     Peak level 100.0 %
     Extraction speed 4.4 X
     Track quality 100.0 %
     Test CRC B4422017
     Copy CRC B4422017
     Track not present in AccurateRip database
     Copy OK

Track 13

     Filename D:\zzz\Anger Management\13. Desolated - Betrayal.wav

     Peak level 100.0 %
     Extraction speed 4.3 X
     Track quality 100.0 %
     Test CRC 29425D3C
     Copy CRC 29425D3C
     Track not present in AccurateRip database
     Copy OK

Track 14

     Filename D:\zzz\Anger Management\14. Dead Hearts - Leech.wav

     Peak level 97.8 %
     Extraction speed 4.6 X
     Track quality 100.0 %
     Test CRC 3D2085B4
     Copy CRC 3D2085B4
     Track not present in AccurateRip database
     Copy OK

Track 15

     Filename D:\zzz\Anger Management\15. Figths & Fires - You Don't Always Reap What You Sow.wav

     Peak level 99.1 %
     Extraction speed 3.1 X
     Track quality 99.8 %
     Test CRC 22229E46
     Copy CRC 22229E46
     Track not present in AccurateRip database
     Copy OK

None of the tracks are present in the AccurateRip database

No errors occurred

End of status report

---- CUETools DB Plugin V2.1.3

[CTDB TOCID: ep8COnhmdpF4hcGmQ0AH3n6jdxA-] disk not present in database, Submit result: ep8COnhmdpF4hcGmQ0AH3n6jdxA- has been uploaded

==== Log checksum CA486841EBAFEA66FD98C017F83D07047A086A85369578D77098FC21668A78A0 ====
Код: Выделить всё
REM GENRE Metal
REM DATE 2013
REM DISCID AF0E150F
REM COMMENT "ExactAudioCopy v1.0b3"
PERFORMER "VA"
TITLE "Anger Management"
FILE "01. Your Demise - Karma.wav" WAVE
  TRACK 01 AUDIO
    TITLE "Karma"
    PERFORMER "Your Demise"
    INDEX 01 00:00:00
FILE "02. Dishonour the Crown - Gone to the Dogs.wav" WAVE
  TRACK 02 AUDIO
    TITLE "Gone to the Dogs"
    PERFORMER "Dishonour the Crown"
    INDEX 01 00:00:00
FILE "03. The Omega Experiment - Karma.wav" WAVE
  TRACK 03 AUDIO
    TITLE "Karma"
    PERFORMER "The Omega Experiment"
    INDEX 01 00:00:00
FILE "04. Waking Theo - Downcast.wav" WAVE
  TRACK 04 AUDIO
    TITLE "Downcast"
    PERFORMER "Waking Theo"
    INDEX 01 00:00:00
FILE "05. Baby Godzilla - Braille for an Axeman.wav" WAVE
  TRACK 05 AUDIO
    TITLE "Braille for an Axeman"
    PERFORMER "Baby Godzilla"
    INDEX 01 00:00:00
FILE "06. Odessa - Path of Frustration.wav" WAVE
  TRACK 06 AUDIO
    TITLE "Path of Frustration"
    PERFORMER "Odessa"
    INDEX 01 00:00:00
FILE "07. Brutality Will Prevail - Second Sight.wav" WAVE
  TRACK 07 AUDIO
    TITLE "Second Sight"
    PERFORMER "Brutality Will Prevail"
    INDEX 01 00:00:00
FILE "08. Bossk - Pick Up Artist.wav" WAVE
  TRACK 08 AUDIO
    TITLE "Pick Up Artist"
    PERFORMER "Bossk"
    INDEX 01 00:00:00
FILE "09. The Earls of Mars - The Mirrored Staircase.wav" WAVE
  TRACK 09 AUDIO
    TITLE "The Mirrored Staircase"
    PERFORMER "The Earls of Mars"
    INDEX 01 00:00:00
FILE "10. The Charm the Fury - Virtue of Leadership.wav" WAVE
  TRACK 10 AUDIO
    TITLE "Virtue of Leadership"
    PERFORMER "The Charm the Fury"
    INDEX 01 00:00:00
FILE "11. Born of Ruin - Zodiark.wav" WAVE
  TRACK 11 AUDIO
    TITLE "Zodiark"
    PERFORMER "Born of Ruin"
    INDEX 01 00:00:00
FILE "12. Anacondas - Cold Blooded, Warm Hearted.wav" WAVE
  TRACK 12 AUDIO
    TITLE "Cold Blooded, Warm Hearted"
    PERFORMER "Anacondas"
    INDEX 01 00:00:00
FILE "13. Desolated - Betrayal.wav" WAVE
  TRACK 13 AUDIO
    TITLE "Betrayal"
    PERFORMER "Desolated"
    INDEX 01 00:00:00
FILE "14. Dead Hearts - Leech.wav" WAVE
  TRACK 14 AUDIO
    TITLE "Leech"
    PERFORMER "Dead Hearts"
    INDEX 01 00:00:00
FILE "15. Figths & Fires - You Don't Always Reap What You Sow.wav" WAVE
  TRACK 15 AUDIO
    TITLE "You Don't Always Reap What You Sow"
    PERFORMER "Figths & Fires"
    INDEX 01 00:00:00
 
Не забывайте говорить Спасибо. Не уходите с раздачи!   
Торрент: Зарегистрирован [07 окт 2014, 07:45] Для скачивания .torrent
необходима регистрация
Или скачать с помощью
MediaGet
Статус:
Проверен
 
.torrent скачан: 0 раз
Хэш: bb5dd918fb5cd01b2a4216478d11ab52022e71fa
Размер: 448.58 МБ (470 368 051 байт)
Стать Автором раздачи
 
 
Раздал: 6.67 ГБ
Скачал: 302.5 МБ
Ратио: 22.576
Сообщения: 374198
Зарегистрирован: 17 апр 2014, 11:05


  • Похожие торренты
    Ответы
    Просмотры
    Последнее сообщение

Вернуться в Сборники "Зарубежный Metal" (lossless)

Ресурс не предоставляет электронные версии произведений, а занимается лишь коллекционированием и каталогизацией ссылок, присылаемых и публикуемых на форуме нашими читателями. Если вы являетесь правообладателем какого-либо представленного материала и не желаете чтобы ссылка на него находилась в нашем каталоге, свяжитесь с нами и мы незамедлительно удалим её. Файлы для обмена на трекере предоставлены пользователями сайта, и администрация не несёт ответственности за их содержание. Просьба не заливать файлы, защищенные авторскими правами, а также файлы нелегального содержания!
cron