(Heavy, Power, Progressive) VA - A Tribute To Dimebag Darrell: Getcha Pull! - 2009, FLAC (image+.cue), lossless

 
 Статистика раздачи 
Размер: 432 МБ   |  Зарегистрирован: 07 окт 2014, 07:45   |   .torrent скачан: 1 раз
Сидеров: 1  [ 0 байт/сек ]     Личеров: 0  [ 0 байт/сек ]  
  

(Heavy, Power, Progressive) VA - A Tribute To Dimebag Darrell: Getcha Pull! - 2009, FLAC (image+.cue), lossless

Сообщение Thistoll » 07 окт 2014, 07:45

VA - A Tribute To Dimebag Darrell: Getcha Pull!

Жанр: Heavy, Power, Progressive
Год выпуска диска: 2009
Производитель диска: UK
Аудио кодек: FLAC
Тип рипа: image+.cue
Битрейт аудио: lossless
Продолжительность: 59 мин. 44 сек.

Трэклист:ZAKK WYLDE – SUICIDE NOTE PART 1
MACHINE HEAD – FUCKING HOSTILE
MALEFICE – I’M BROKEN
AVENGED SEVENFOLD – WALK
EVILE – CEMETERY GATES
FIVE FINGER DEATH PUNCH – A NEW LEVEL
BIOHAZARD – MOUTH FOR WAR
SYLOSIS – STRENGTH BEYOND STRENGTH
CHIMAIRA – SLAUGHTERED
UNEARTH – SANDBLASTED SKIN
THROWDOWN – BECOMING
KIUAS – THIS LOVE
THIS IS HELL – RISE
Код: Выделить всё
Exact Audio Copy V0.99 prebeta 4 from 23. January 2008

Отчёт EAC об извлечении, выполненном 22. декабря 2009, 0:11

Various / Getcha Pull!

Дисковод: PHILIPS DVD-RAM SDVD8821   Adapter: 1  ID: 0

Режим чтения                 : Достоверность
Использование точного потока : Да
Отключение кэша аудио        : Да
Использование указателей C2  : Нет

Коррекция смещения при чтении                     : 6
Способность читать области Lead-in и Lead-out     : Нет
Заполнение пропущенных сэмплов тишиной            : Да
Удаление блоков с тишиной в начале и конце        : Нет
При вычислениях CRC использовались нулевые сэмплы : Да
Интерфейс                                         : Встроенный Win32-интерфейс для Win NT/2000

Выходной формат : Внутренние WAV-операции
Формат сэмплов  : 44.100 Гц; 16 бит; стерео

TOC извлечённого CD

     Трек |   Старт  | Длительность | Начальный сектор | Конечный сектор
    ---------------------------------------------------------------------
       1  |  0:00.00 |    5:34.29   |           0      |      25078
       2  |  5:34.29 |    2:53.29   |       25079      |      38082
       3  |  8:27.58 |    4:18.52   |       38083      |      57484
       4  | 12:46.35 |    5:20.14   |       57485      |      81498
       5  | 18:06.49 |    7:11.15   |       81499      |     113838
       6  | 25:17.64 |    4:00.57   |      113839      |     131895
       7  | 29:18.46 |    3:59.21   |      131896      |     149841
       8  | 33:17.67 |    3:44.48   |      149842      |     166689
       9  | 37:02.40 |    4:01.46   |      166690      |     184810
      10  | 41:04.11 |    3:29.67   |      184811      |     200552
      11  | 44:34.03 |    3:20.09   |      200553      |     215561
      12  | 47:54.12 |    7:14.38   |      215562      |     248149
      13  | 55:08.50 |    4:35.54   |      248150      |     268828

Характеристики диапазона извлечения и сообщения об ошибках

Выбранный диапазон

     Имя файла C:\Documents and Settings\User\My Documents\My Music\Various - Getcha Pull!.wav

     Пиковый уровень 100.0 %
     Качество диапазона 99.9 %
     CRC копии 7B4488C7
     Копирование... OK

Ошибок не произошло

AccurateRip: сводка

Трек  1  нет в базе данных
Трек  2  нет в базе данных
Трек  3  нет в базе данных
Трек  4  нет в базе данных
Трек  5  нет в базе данных
Трек  6  нет в базе данных
Трек  7  нет в базе данных
Трек  8  нет в базе данных
Трек  9  нет в базе данных
Трек 10  нет в базе данных
Трек 11  нет в базе данных
Трек 12  нет в базе данных
Трек 13  нет в базе данных

Ни одного трека нет в базе AccurateRip

Конец отчёта
Доп. информация: Данное CD является приложением к журналу Metal Hammer. Декабрь 2009.

Доп. картинки:

Код: Выделить всё
REM GENRE Metal
REM DATE 2009
PERFORMER "Various"
TITLE "Getcha Pull! - A Tribute to Dimebag Darrell [Metal Hammer]"
FILE "Various - Getcha Pull!.flac" WAVE
  TRACK 01 AUDIO
    TITLE "Zakk Wylde - Suicide Note Part 1"
    PERFORMER "Various"
    INDEX 01 00:00:00
  TRACK 02 AUDIO
    TITLE "Machine Head - Fucking Hostile"
    PERFORMER "Various"
    INDEX 00 05:32:29
    INDEX 01 05:34:29
  TRACK 03 AUDIO
    TITLE "Malefice - I'm Broken"
    PERFORMER "Various"
    INDEX 00 08:25:58
    INDEX 01 08:27:58
  TRACK 04 AUDIO
    TITLE "Avenged Sevenfold - Walk"
    PERFORMER "Various"
    INDEX 00 12:44:35
    INDEX 01 12:46:35
  TRACK 05 AUDIO
    TITLE "Evile - Cemetary Gates"
    PERFORMER "Various"
    INDEX 00 18:04:49
    INDEX 01 18:06:49
  TRACK 06 AUDIO
    TITLE "Five Finger Death Punch - A New Level"
    PERFORMER "Various"
    INDEX 00 25:15:64
    INDEX 01 25:17:64
  TRACK 07 AUDIO
    TITLE "Biohazard - Mouth For War"
    PERFORMER "Various"
    INDEX 00 29:16:46
    INDEX 01 29:18:46
  TRACK 08 AUDIO
    TITLE "Sylosis - Strength Beyond Strength"
    PERFORMER "Various"
    INDEX 00 33:15:67
    INDEX 01 33:17:67
  TRACK 09 AUDIO
    TITLE "Chimaira - Slaughtered"
    PERFORMER "Various"
    INDEX 00 37:00:40
    INDEX 01 37:02:40
  TRACK 10 AUDIO
    TITLE "Unearth - Sandblasted Skin"
    PERFORMER "Various"
    INDEX 00 41:02:11
    INDEX 01 41:04:11
  TRACK 11 AUDIO
    TITLE "Throwdown - Becoming"
    PERFORMER "Various"
    INDEX 00 44:32:03
    INDEX 01 44:34:03
  TRACK 12 AUDIO
    TITLE "Kiuas - This Love"
    PERFORMER "Various"
    INDEX 00 47:52:12
    INDEX 01 47:54:12
  TRACK 13 AUDIO
    TITLE "This Is Hell - Rise"
    PERFORMER "Various"
    INDEX 00 55:06:50
    INDEX 01 55:08:50
 
Не забывайте говорить Спасибо. Не уходите с раздачи!   
Торрент: Зарегистрирован [07 окт 2014, 07:45] Для скачивания .torrent
необходима регистрация
Или скачать с помощью
MediaGet
Статус:
Проверен
 
.torrent скачан: 1 раз
Хэш: 92fd5373cde25eee4a17e7a1fac40244ba0028fd
Размер: 432 МБ (452 987 099 байт)
Стать Автором раздачи
 
 
Раздал: 6.67 ГБ
Скачал: 302.5 МБ
Ратио: 22.576
Сообщения: 374198
Зарегистрирован: 17 апр 2014, 11:05


  • Похожие торренты
    Ответы
    Просмотры
    Последнее сообщение

Вернуться в Сборники "Зарубежный Metal" (lossless)