(Grindcore) VA - Dutch Assault - 2003, FLAC (image+.cue), lossless

 
 Статистика раздачи 
Размер: 432.65 МБ   |  Зарегистрирован: 07 окт 2014, 07:46   |   .torrent скачан: 0 раз
Сидеров: 1  [ 0 байт/сек ]     Личеров: 1  [ 0 байт/сек ]  
  

(Grindcore) VA - Dutch Assault - 2003, FLAC (image+.cue), lossless

Сообщение Thistoll » 07 окт 2014, 07:46

Dutch Assault

Жанр: Grindcore
Год издания: 2003
Издатель (лейбл): Relapse Records
Страна: NL
Аудиокодек: FLAC (*.flac)
Тип рипа: image+.cue
Битрейт аудио: lossless
Продолжительность: 53:06
Источник (релизер): Оригинальный Диск
Наличие сканов в содержимом раздачи: да
Треклист:
01. Suppository - Separate The Wrong
02. Suppository - Cleansed The Ignorant
03. Suppository - The Bate
04. Suppository - Retrive
05. Suppository - Sightless
06. Suppository - Killing Spirit
07. Suppository - Digested As Myths
08. Suppository - Infinite Sight
09. Suppository - Numb
10. Suppository - Blindspot
11. Last Days Of Humanity - Rusty Razors In A Molding Corpse
12. Last Days Of Humanity - Taste Of Vomiting Maggots
13. Last Days Of Humanity - Infested Torso Down A Shallow Grave
14. Last Days Of Humanity - Morbid Phallus Grinder
15. Last Days Of Humanity - Raped, Killed And Sodomized
16. Last Days Of Humanity - Mummification By A Septic Tank
17. Last Days Of Humanity - Decrepitated Regurgitations In Foetal Leprosy
18. Last Days Of Humanity - Exposed Mangled Orifice
19. Last Days Of Humanity - Chopped Up Face Beyond Recognition
20. S.M.E.S. - Homosapiënsphobic
21. S.M.E.S. - Idiot Idol
22. S.M.E.S. - E. T.'s Finger Up There
23. S.M.E.S. - Cricked Bat Man
24. S.M.E.S. - Hungry For Lust
25. Inhume - Bowel Movement
26. Inhume - Process To Decelerate
27. Inhume - Fucking Shit
28. Inhume - Genital Cancer
Код: Выделить всё
Exact Audio Copy V1.0 beta 3 from 29. August 2011

EAC extraction logfile from 15. June 2012, 20:15

Various / Dutch Assault

Used drive  : ASUS    DRW-22B1LT   Adapter: 1  ID: 1

Read mode               : Secure
Utilize accurate stream : Yes
Defeat audio cache      : Yes
Make use of C2 pointers : No

Read offset correction                      : 6
Overread into Lead-In and Lead-Out          : No
Fill up missing offset samples with silence : Yes
Delete leading and trailing silent blocks   : No
Null samples used in CRC calculations       : Yes
Used interface                              : Installed external ASPI interface

Used output format              : User Defined Encoder
Selected bitrate                : 1024 kBit/s
Quality                         : High
Add ID3 tag                     : Yes
Command line compressor         : C:\Program Files (x86)\Exact Audio Copy\FLAC\FLAC.EXE
Additional command line options : -8 -V %source% -T "ARTIST=%albumartist%" -T "TITLE=%title%" -T "ALBUM=%albumtitle%" -T "DATE=%year%" -T "GENRE=%genre%"

TOC of the extracted CD

     Track |   Start  |  Length  | Start sector | End sector
    ---------------------------------------------------------
        1  |  0:00.00 |  0:45.70 |         0    |     3444
        2  |  0:45.70 |  1:59.37 |      3445    |    12406
        3  |  2:45.32 |  1:16.13 |     12407    |    18119
        4  |  4:01.45 |  1:55.31 |     18120    |    26775
        5  |  5:57.01 |  1:44.13 |     26776    |    34588
        6  |  7:41.14 |  0:33.26 |     34589    |    37089
        7  |  8:14.40 |  2:16.64 |     37090    |    47353
        8  | 10:31.29 |  1:26.55 |     47354    |    53858
        9  | 11:58.09 |  2:37.22 |     53859    |    65655
       10  | 14:35.31 |  3:18.39 |     65656    |    80544
       11  | 17:53.70 |  1:21.43 |     80545    |    86662
       12  | 19:15.38 |  2:23.74 |     86663    |    97461
       13  | 21:39.37 |  0:47.48 |     97462    |   101034
       14  | 22:27.10 |  1:25.04 |    101035    |   107413
       15  | 23:52.14 |  0:48.63 |    107414    |   111076
       16  | 24:41.02 |  1:40.48 |    111077    |   118624
       17  | 26:21.50 |  2:15.69 |    118625    |   128818
       18  | 28:37.44 |  1:46.18 |    128819    |   136786
       19  | 30:23.62 |  1:28.62 |    136787    |   143448
       20  | 31:52.49 |  2:12.54 |    143449    |   153402
       21  | 34:05.28 |  2:46.07 |    153403    |   165859
       22  | 36:51.35 |  1:46.34 |    165860    |   173843
       23  | 38:37.69 |  3:54.45 |    173844    |   191438
       24  | 42:32.39 |  2:46.19 |    191439    |   203907
       25  | 45:18.58 |  1:54.70 |    203908    |   212527
       26  | 47:13.53 |  2:08.35 |    212528    |   222162
       27  | 49:22.13 |  2:02.66 |    222163    |   231378
       28  | 51:25.04 |  1:41.29 |    231379    |   238982

Range status and errors

Selected range

     Filename H:\_lossless 4 sarge_\V.A. -2003- Dutch Assault\Various - Dutch Assault.wav

     Peak level 100.0 %
     Extraction speed 7.0 X
     Range quality 100.0 %
     Test CRC A1CAA493
     Copy CRC A1CAA493
     Copy OK

No errors occurred

AccurateRip summary

Track  1  not present in database
Track  2  not present in database
Track  3  not present in database
Track  4  not present in database
Track  5  not present in database
Track  6  not present in database
Track  7  not present in database
Track  8  not present in database
Track  9  not present in database
Track 10  not present in database
Track 11  not present in database
Track 12  not present in database
Track 13  not present in database
Track 14  not present in database
Track 15  not present in database
Track 16  not present in database
Track 17  not present in database
Track 18  not present in database
Track 19  not present in database
Track 20  not present in database
Track 21  not present in database
Track 22  not present in database
Track 23  not present in database
Track 24  not present in database
Track 25  not present in database
Track 26  not present in database
Track 27  not present in database
Track 28  not present in database

None of the tracks are present in the AccurateRip database

End of status report

---- CUETools DB Plugin V2.1.3

[CTDB TOCID: 7VknI6S86fLWuCa00n68lKaX5w0-] found, Submit result: 7VknI6S86fLWuCa00n68lKaX5w0- has been confirmed
[ec80799d] (1/1) Accurately ripped

==== Log checksum 86A0DB81C02EA45FD0304DB44BC11DD7439EFFD6F46C8D9C827B91E85F188EEF ====
#77
 
Не забывайте говорить Спасибо. Не уходите с раздачи!   
Торрент: Зарегистрирован [07 окт 2014, 07:46] Для скачивания .torrent
необходима регистрация
Или скачать с помощью
MediaGet
Статус:
Проверен
 
.torrent скачан: 0 раз
Хэш: 62a3e6f184a1e1c9844b7998399e57f153aa57cd
Размер: 432.65 МБ (453 661 786 байт)
Стать Автором раздачи
 
 
Раздал: 6.67 ГБ
Скачал: 302.5 МБ
Ратио: 22.576
Сообщения: 374198
Зарегистрирован: 17 апр 2014, 11:05


  • Похожие торренты
    Ответы
    Просмотры
    Последнее сообщение

Вернуться в Сборники "Зарубежный Metal" (lossless)

Ресурс не предоставляет электронные версии произведений, а занимается лишь коллекционированием и каталогизацией ссылок, присылаемых и публикуемых на форуме нашими читателями. Если вы являетесь правообладателем какого-либо представленного материала и не желаете чтобы ссылка на него находилась в нашем каталоге, свяжитесь с нами и мы незамедлительно удалим её. Файлы для обмена на трекере предоставлены пользователями сайта, и администрация не несёт ответственности за их содержание. Просьба не заливать файлы, защищенные авторскими правами, а также файлы нелегального содержания!
cron