(Heavy Metal, Thrash Metal) VA - Motormorphosis Part 2 - A Tribute To Motorhead - 2003, FLAC (tracks+.cue), lossless

 
 Статистика раздачи 
Размер: 614.68 МБ   |  Зарегистрирован: 07 окт 2014, 07:46   |   .torrent скачан: 1 раз
Сидеров: 1  [ 0 байт/сек ]     Личеров: 0  [ 0 байт/сек ]  
  

(Heavy Metal, Thrash Metal) VA - Motormorphosis Part 2 - A Tribute To Motorhead - 2003, FLAC (tracks+.cue), lossless

Сообщение Thistoll » 07 окт 2014, 07:46

Various Artists - Motormorphosis Part 2 - A Tribute To Motorhead

Жанр: Heavy Metal, Thrash Metal
Год выпуска диска: 2003
Производитель диска: Germany
Аудио кодек: FLAC
Тип рипа: tracks+.cue
Битрейт аудио: lossless
Продолжительность: 79:52
Трэклист:
01. Stormwarrior - Built For Speed 4:12
02. Torment - No Voices In The Sky 3:26
03. V8 Wankers - Bomber 3:18
04. Holy Moses - The Hammer 2:27
05. Twisted Tower Dire - Shoot You In The Back 2:25
06. Fyredogs - Love For Sale 3:36
07. Goddess Of Desire - Death Or Glory 4:42
08. Kickhunter - Love Me Like A Reptile 3:28
09. Bonehouse - Dancing On Your Grave 3:40
10. Powergod - Liar 4:10
11. Megace - Iron Fist 3:12
12. Nifelheim - Sacrifice 3:11
13. Gun Barrel - Out Of The Sun 4:16
14. Devil's Day Off - The Chase Is Better Than The Catch 4:20
15. Uppercut - Sex & Outrage 1:43
16. Lost Johnny - Lost Johnny 3:19
17. Holy Moses - I'm The Doctor 2:31
18. Traceelords - Please Don't Touch 2:46
19. Torment - Orgasmatron 4:49
20. Noise Forest - No Class 2:17
21. Erosion - Capricorn 4:02
22. Division - Too Late Too Late 3:30
23. Philiae - I Don't Believe A Word 4:32
Exact Audio Copy V0.99 prebeta 1 from 25. May 2007

EAC extraction logfile from 3. November 2009, 10:47

Various / Motormorphosis - A Tribute To Motorhead Part 2

Used drive : _NEC DVD_RW ND-4550A Adapter: 0 ID: 1

Read mode : Secure
Utilize accurate stream : Yes
Defeat audio cache : Yes
Make use of C2 pointers : No

Read offset correction : 48
Overread into Lead-In and Lead-Out : No
Fill up missing offset samples with silence : Yes
Delete leading and trailing silent blocks : No
Used interface : Native Win32 interface for Win NT & 2000
Gap handling : Appended to previous track

Used output format : User Defined Encoder
Selected bitrate : 128 kBit/s
Quality : High
Add ID3 tag : No
Command line compressor : C:\Program Files\Exact Audio Copy\Flac\flac.exe
Additional command line options : -8 -V -T "ARTIST=%a" -T "TITLE=%t" -T "ALBUM=%g" -T "DATE=%y" -T "TRACKNUMBER=%n" -T "GENRE=%m" -T "COMMENT=EAC FLAC -8" %s

TOC of the extracted CD

Track | Start | Length | Start sector | End sector
---------------------------------------------------------
1 | 0:00.00 | 4:12.47 | 0 | 18946
2 | 4:12.47 | 3:26.08 | 18947 | 34404
3 | 7:38.55 | 3:18.38 | 34405 | 49292
4 | 10:57.18 | 2:27.19 | 49293 | 60336
5 | 13:24.37 | 2:25.10 | 60337 | 71221
6 | 15:49.47 | 3:36.47 | 71222 | 87468
7 | 19:26.19 | 4:42.17 | 87469 | 108635
8 | 24:08.36 | 3:28.00 | 108636 | 124235
9 | 27:36.36 | 3:40.30 | 124236 | 140765
10 | 31:16.66 | 4:10.38 | 140766 | 159553
11 | 35:27.29 | 3:12.08 | 159554 | 173961
12 | 38:39.37 | 3:11.00 | 173962 | 188286
13 | 41:50.37 | 4:15.57 | 188287 | 207468
14 | 46:06.19 | 4:20.27 | 207469 | 226995
15 | 50:26.46 | 1:43.57 | 226996 | 234777
16 | 52:10.28 | 3:19.07 | 234778 | 249709
17 | 55:29.35 | 2:31.41 | 249710 | 261075
18 | 58:01.01 | 2:46.25 | 261076 | 273550
19 | 60:47.26 | 4:48.66 | 273551 | 295216
20 | 65:36.17 | 2:17.38 | 295217 | 305529
21 | 67:53.55 | 4:02.58 | 305530 | 323737
22 | 71:56.38 | 3:30.29 | 323738 | 339516
23 | 75:26.67 | 4:31.66 | 339517 | 359907

Track 1

Filename D:\Music\lossless\Motorhead\2003 Motormorphosis - A Tribute To Motorhead Part 2\01. STORMWARRIOR - Built For Speed.wav

Pre-gap length 0:00:02.00

Peak level 100.0 %
Track quality 100.0 %
Test CRC 653403A1
Copy CRC 653403A1
Not accurately ripped (confidence 1) [6B91FD73], but should be [14F40507]
Copy OK

Track 2

Filename D:\Music\lossless\Motorhead\2003 Motormorphosis - A Tribute To Motorhead Part 2\02. TORMENT - No Voices In The Sky.wav

Peak level 100.0 %
Track quality 100.0 %
Test CRC F63FCBFA
Copy CRC F63FCBFA
Not accurately ripped (confidence 1) [99394AE6], but should be [3A10D818]
Copy OK

Track 3

Filename D:\Music\lossless\Motorhead\2003 Motormorphosis - A Tribute To Motorhead Part 2\03. V8 WANKERS - Bomber.wav

Peak level 100.0 %
Track quality 100.0 %
Test CRC FAB180F3
Copy CRC FAB180F3
Not accurately ripped (confidence 1) [FF9EBF70], but should be [AFFF3EE8]
Copy OK

Track 4

Filename D:\Music\lossless\Motorhead\2003 Motormorphosis - A Tribute To Motorhead Part 2\04. HOLY MOSES - The Hammer.wav

Peak level 100.0 %
Track quality 100.0 %
Test CRC 3306E1AF
Copy CRC 3306E1AF
Not accurately ripped (confidence 1) [38620FCA], but should be [EE7F7228]
Copy OK

Track 5

Filename D:\Music\lossless\Motorhead\2003 Motormorphosis - A Tribute To Motorhead Part 2\05. TWISTED TOWER DIRE - Shoot You In The Back.wav

Peak level 100.0 %
Track quality 99.9 %
Test CRC 270965CC
Copy CRC 270965CC
Not accurately ripped (confidence 1) [E1B9FA18], but should be [D1FAEC36]
Copy OK

Track 6

Filename D:\Music\lossless\Motorhead\2003 Motormorphosis - A Tribute To Motorhead Part 2\06. FYREDOGS - Love For Sale.wav

Peak level 79.0 %
Track quality 100.0 %
Test CRC 7C635773
Copy CRC 7C635773
Not accurately ripped (confidence 1) [DB5238A7], but should be [05F60E33]
Copy OK

Track 7

Filename D:\Music\lossless\Motorhead\2003 Motormorphosis - A Tribute To Motorhead Part 2\07. GODDESS OF DESIRE - Death Or Glory.wav

Peak level 100.0 %
Track quality 99.9 %
Test CRC 6C8028AA
Copy CRC 6C8028AA
Not accurately ripped (confidence 1) [712E9E67], but should be [78DFACED]
Copy OK

Track 8

Filename D:\Music\lossless\Motorhead\2003 Motormorphosis - A Tribute To Motorhead Part 2\08. KICKHUNTER - Love Me Like A Reptile.wav

Peak level 83.0 %
Track quality 100.0 %
Test CRC 396110F0
Copy CRC 396110F0
Not accurately ripped (confidence 1) [CE59B2BF], but should be [8FBDB21C]
Copy OK

Track 9

Filename D:\Music\lossless\Motorhead\2003 Motormorphosis - A Tribute To Motorhead Part 2\09. BONEHOUSE - Dancing On Your Grave.wav

Peak level 100.0 %
Track quality 100.0 %
Test CRC 1327F4E6
Copy CRC 1327F4E6
Not accurately ripped (confidence 1) [596E9616], but should be [758A5EC3]
Copy OK

Track 10

Filename D:\Music\lossless\Motorhead\2003 Motormorphosis - A Tribute To Motorhead Part 2\10. POWERGOD - Liar.wav

Peak level 85.0 %
Track quality 100.0 %
Test CRC 6DBF251D
Copy CRC 6DBF251D
Not accurately ripped (confidence 1) [11218635], but should be [0444D23B]
Copy OK

Track 11

Filename D:\Music\lossless\Motorhead\2003 Motormorphosis - A Tribute To Motorhead Part 2\11. MEGACE - Iron Fist.wav

Peak level 87.1 %
Track quality 100.0 %
Test CRC 54F4ABAD
Copy CRC 54F4ABAD
Not accurately ripped (confidence 1) [789ADF17], but should be [665E65B7]
Copy OK

Track 12

Filename D:\Music\lossless\Motorhead\2003 Motormorphosis - A Tribute To Motorhead Part 2\12. NIFELHEIM - Sacrifice.wav

Peak level 100.0 %
Track quality 100.0 %
Test CRC 5397865A
Copy CRC 5397865A
Not accurately ripped (confidence 1) [83253FA7], but should be [F3BD4B6D]
Copy OK

Track 13

Filename D:\Music\lossless\Motorhead\2003 Motormorphosis - A Tribute To Motorhead Part 2\13. GUN BARREL - Out Of The Sun.wav

Peak level 100.0 %
Track quality 100.0 %
Test CRC 87CD0425
Copy CRC 87CD0425
Not accurately ripped (confidence 1) [223E6471], but should be [2495C5FB]
Copy OK

Track 14

Filename D:\Music\lossless\Motorhead\2003 Motormorphosis - A Tribute To Motorhead Part 2\14. DEVIL'S DAY OFF - The Chase Is Better Than The Catch.wav

Peak level 100.0 %
Track quality 100.0 %
Test CRC B1E96365
Copy CRC B1E96365
Not accurately ripped (confidence 1) [E92C7D38], but should be [54120D60]
Copy OK

Track 15

Filename D:\Music\lossless\Motorhead\2003 Motormorphosis - A Tribute To Motorhead Part 2\15. UPPERCUT - Sex And Outrage.wav

Peak level 82.9 %
Track quality 100.0 %
Test CRC ED07D555
Copy CRC ED07D555
Not accurately ripped (confidence 1) [8193F8E5], but should be [18962E7C]
Copy OK

Track 16

Filename D:\Music\lossless\Motorhead\2003 Motormorphosis - A Tribute To Motorhead Part 2\16. LOST JOHNNY - Lost Johnny.wav

Peak level 97.2 %
Track quality 100.0 %
Test CRC 93A5841C
Copy CRC 93A5841C
Not accurately ripped (confidence 1) [E2E55F93], but should be [A663F020]
Copy OK

Track 17

Filename D:\Music\lossless\Motorhead\2003 Motormorphosis - A Tribute To Motorhead Part 2\17. HOLY MOSES - I'm The Doctor.wav

Peak level 100.0 %
Track quality 100.0 %
Test CRC E1EADE43
Copy CRC E1EADE43
Not accurately ripped (confidence 1) [8AD95F1A], but should be [57E3D3BD]
Copy OK

Track 18

Filename D:\Music\lossless\Motorhead\2003 Motormorphosis - A Tribute To Motorhead Part 2\18. TRACEELORDS - Please Don't Touch.wav

Peak level 100.0 %
Track quality 100.0 %
Test CRC 847D4628
Copy CRC 847D4628
Not accurately ripped (confidence 1) [540E7FC6], but should be [CF009BFD]
Copy OK

Track 19

Filename D:\Music\lossless\Motorhead\2003 Motormorphosis - A Tribute To Motorhead Part 2\19. TORMENT - Orgasmatron.wav

Peak level 100.0 %
Track quality 99.9 %
Test CRC 230C3DB8
Copy CRC 230C3DB8
Not accurately ripped (confidence 1) [BB4A4D2C], but should be [D7635767]
Copy OK

Track 20

Filename D:\Music\lossless\Motorhead\2003 Motormorphosis - A Tribute To Motorhead Part 2\20. NOISE FOREST - No Class.wav

Peak level 75.1 %
Track quality 100.0 %
Test CRC FA7AA936
Copy CRC FA7AA936
Not accurately ripped (confidence 1) [E956C3F4], but should be [74F52EB5]
Copy OK

Track 21

Filename D:\Music\lossless\Motorhead\2003 Motormorphosis - A Tribute To Motorhead Part 2\21. EROSION - Capricorn.wav

Peak level 100.0 %
Track quality 100.0 %
Test CRC DA74353D
Copy CRC DA74353D
Not accurately ripped (confidence 1) [DDFE8F85], but should be [1E519979]
Copy OK

Track 22

Filename D:\Music\lossless\Motorhead\2003 Motormorphosis - A Tribute To Motorhead Part 2\22. DIVISION - Too Late Too Late.wav

Peak level 100.0 %
Track quality 100.0 %
Test CRC 02B32867
Copy CRC 02B32867
Not accurately ripped (confidence 1) [FDE80776], but should be [E87BD9D2]
Copy OK

Track 23

Filename D:\Music\lossless\Motorhead\2003 Motormorphosis - A Tribute To Motorhead Part 2\23. PHILIAE - I Don't Believe A Word.wav

Peak level 100.0 %
Track quality 100.0 %
Test CRC A5071841
Copy CRC A5071841
Not accurately ripped (confidence 1) [E8711B57], but should be [4A028B4E]
Copy OK

Not all tracks ripped accurately

End of status report
 
Не забывайте говорить Спасибо. Не уходите с раздачи!   
Торрент: Зарегистрирован [07 окт 2014, 07:46] Для скачивания .torrent
необходима регистрация
Или скачать с помощью
MediaGet
Статус:
Проверен
 
.torrent скачан: 1 раз
Хэш: 7e54ca0ff65beb10d40145dbec729c5770096268
Размер: 614.68 МБ (644 543 877 байт)
Стать Автором раздачи
 
 
Раздал: 6.67 ГБ
Скачал: 302.5 МБ
Ратио: 22.576
Сообщения: 374198
Зарегистрирован: 17 апр 2014, 11:05


  • Похожие торренты
    Ответы
    Просмотры
    Последнее сообщение

Вернуться в Сборники "Зарубежный Metal" (lossless)

Ресурс не предоставляет электронные версии произведений, а занимается лишь коллекционированием и каталогизацией ссылок, присылаемых и публикуемых на форуме нашими читателями. Если вы являетесь правообладателем какого-либо представленного материала и не желаете чтобы ссылка на него находилась в нашем каталоге, свяжитесь с нами и мы незамедлительно удалим её. Файлы для обмена на трекере предоставлены пользователями сайта, и администрация не несёт ответственности за их содержание. Просьба не заливать файлы, защищенные авторскими правами, а также файлы нелегального содержания!
cron