(Grind/Brutal Death) VA - Goregrind Cafe III - 2005, WavPack (image+.cue), lossless

 
 Статистика раздачи 
Размер: 459.72 МБ   |  Зарегистрирован: 07 окт 2014, 07:48   |   .torrent скачан: 0 раз
Сидеров: 1  [ 0 байт/сек ]     Личеров: 1  [ 0 байт/сек ]  
  

(Grind/Brutal Death) VA - Goregrind Cafe III - 2005, WavPack (image+.cue), lossless

Сообщение Thistoll » 07 окт 2014, 07:48

Код: Выделить всё
[center]Goregrind Cafe III[/center][hr][/hr][b]Жанр[/b]:                          Grind/Brutal Death
[b]Страна-производитель диска[/b]:    Ukraine
[b]Год издания[/b]:                   2005
[b]Издатель (лейбл)[/b]:              Moon Records
[b]Номер по каталогу[/b]:             MR-1216-2
[b]Аудиокодек[/b]:                    WavPack (*.wv)
[b]Тип рипа[/b]:                      image+.cue
[b]Битрейт аудио[/b]:                 lossless
[b]Продолжительность[/b]:             01:05:45
[b]Источник (релизер)[/b]:            Собственный диск
[b]Наличие сканов[/b]:                да[hr][/hr]

01    Dead Infection                   Rich Zombie                           01:36
02    Dead Infection                   Satan's Hole                          02:22
03    Brodequin                        Slaves Of The Pyre                    02:21
04    XXX Maniak                       Gorestar                              00:33
05    XXX Maniak                       Illegal Teens Do Anything For Money   00:37
06    Cripple Bastards                 Desperately Insensitive               04:16
07    Devourment                       Babykiller                            04:29
08    Lust Of Decay                    Crustacean Masturbation               03:47
09    Datura                           Bent Within                           02:50
10    Tu Carne                         # La Sala Del Dolor                   01:44
11    Soils Of Fate                    Vs.                                   03:21
12    Maggut                           The Mule Faced Women                  00:40
13    Maggut                           Dismemberment Corpse Collector        02:14
14    Grindfather                      Bombasting Fresh                      01:34
15    Grindfather                      Bleed For Bliss                       00:50
16    Mangled Atrocity                 Vaginal Butchery                      02:41
17    Decomposing Serenity             Feel The Peroxide On Your Wound       00:58
18    Necrocannibalistic Vomitorium    Syndrome Of Torture                   00:37
19    Necrocannibalistic Vomitorium    Cuntlicking                           01:11
20    Sarcophagia Carnia               Track 4                               01:13
21    Sarcophagia Carnia               Track 6                               02:01
22    Animals Killing People           Bullfighters Die                      03:39
23    Liturgy                          Shrouded In Suffering                 02:55
24    Lymphatic Phlegm                 Chronic Epidermic Necrolysis          01:31
25    Ebanath                          I See Nothing                         01:24
26    Oxidized Razor                   F.H.L.                                03:25
27    Sanatorium                       Violent Intercourse                   03:19
28    Internal Suffering               Enter The Gate Of Death               03:57
29    Mortuary Hacking Session         Severed Fingertips                    02:03
30    Mortuary Hacking Session         As The Putrified Meat                 01:24
Код: Выделить всё
Exact Audio Copy V1.0 beta 3 from 29. August 2011

Отчёт EAC об извлечении, выполненном 10. апреля 2014, 15:06

Various / Goregrind Caf III

Дисковод: TS8XDVDRTranscend   Adapter: 1  ID: 0

Режим чтения                 : Достоверность
Использование точного потока : Да
Отключение кэша аудио        : Да
Использование указателей C2  : Нет

Коррекция смещения при чтении                     : 6
Способность читать области Lead-in и Lead-out     : Нет
Заполнение пропущенных сэмплов тишиной            : Да
Удаление блоков с тишиной в начале и конце        : Нет
При вычислениях CRC использовались нулевые сэмплы : Да
Интерфейс                                         : Встроенный Win32-интерфейс для Win NT/2000

Выходной формат : Внутренние WAV-операции
Формат сэмплов  : 44.100 Гц; 16 бит; стерео

TOC извлечённого CD

     Трек |   Старт  | Длительность | Начальный сектор | Конечный сектор
    ---------------------------------------------------------------------
       1  |  0:00.00 |    1:36.24   |           0      |       7223
       2  |  1:36.24 |    2:22.45   |        7224      |      17918
       3  |  3:58.69 |    2:21.09   |       17919      |      28502
       4  |  6:20.03 |    0:33.39   |       28503      |      31016
       5  |  6:53.42 |    0:37.16   |       31017      |      33807
       6  |  7:30.58 |    4:16.60   |       33808      |      53067
       7  | 11:47.43 |    4:29.00   |       53068      |      73242
       8  | 16:16.43 |    3:47.62   |       73243      |      90329
       9  | 20:04.30 |    2:50.26   |       90330      |     103105
      10  | 22:54.56 |    1:44.07   |      103106      |     110912
      11  | 24:38.63 |    3:21.67   |      110913      |     126054
      12  | 28:00.55 |    0:40.21   |      126055      |     129075
      13  | 28:41.01 |    2:14.70   |      129076      |     139195
      14  | 30:55.71 |    1:34.17   |      139196      |     146262
      15  | 32:30.13 |    0:50.74   |      146263      |     150086
      16  | 33:21.12 |    2:41.20   |      150087      |     162181
      17  | 36:02.32 |    0:58.42   |      162182      |     166573
      18  | 37:00.74 |    0:37.13   |      166574      |     169361
      19  | 37:38.12 |    1:11.31   |      169362      |     174717
      20  | 38:49.43 |    1:13.57   |      174718      |     180249
      21  | 40:03.25 |    2:01.01   |      180250      |     189325
      22  | 42:04.26 |    3:39.26   |      189326      |     205776
      23  | 45:43.52 |    2:55.67   |      205777      |     218968
      24  | 48:39.44 |    1:31.69   |      218969      |     225862
      25  | 50:11.38 |    1:24.47   |      225863      |     232209
      26  | 51:36.10 |    3:25.02   |      232210      |     247586
      27  | 55:01.12 |    3:19.01   |      247587      |     262512
      28  | 58:20.13 |    3:57.03   |      262513      |     280290
      29  | 62:17.16 |    2:03.50   |      280291      |     289565
      30  | 64:20.66 |    1:24.11   |      289566      |     295876

Характеристики диапазона извлечения и сообщения об ошибках

Выбранный диапазон

     Имя файла C:\Users\Buzya\Desktop\Новая папка (4)\Various - Goregrind Caf III.wav

     Пиковый уровень 100.0 %
     Скорость извлечения 5.1 X
     Качество диапазона 100.0 %
     CRC копии 2B7A6119
     Копирование... OK

Ошибок не произошло

Конец отчёта

---- CUETools DB Plugin V2.1.3

[CTDB TOCID: tEiljGDG7UMnZrglrPrAbK75Gm8-] found, Submit result: already submitted
[bf1a6d4c] (2/2) Accurately ripped
Код: Выделить всё
[CUETools log; Date: 10.04.2014 15:10:52; Version: 2.1.5]
[CTDB TOCID: tEiljGDG7UMnZrglrPrAbK75Gm8-] found.
Track | CTDB Status
  1   | (2/2) Accurately ripped
  2   | (2/2) Accurately ripped
  3   | (2/2) Accurately ripped
  4   | (2/2) Accurately ripped
  5   | (2/2) Accurately ripped
  6   | (2/2) Accurately ripped
  7   | (2/2) Accurately ripped
  8   | (2/2) Accurately ripped
  9   | (2/2) Accurately ripped
 10   | (2/2) Accurately ripped
 11   | (2/2) Accurately ripped
 12   | (2/2) Accurately ripped
 13   | (2/2) Accurately ripped
 14   | (2/2) Accurately ripped
 15   | (2/2) Accurately ripped
 16   | (2/2) Accurately ripped
 17   | (2/2) Accurately ripped
 18   | (2/2) Accurately ripped
 19   | (2/2) Accurately ripped
 20   | (2/2) Accurately ripped
 21   | (2/2) Accurately ripped
 22   | (2/2) Accurately ripped
 23   | (2/2) Accurately ripped
 24   | (2/2) Accurately ripped
 25   | (2/2) Accurately ripped
 26   | (2/2) Accurately ripped
 27   | (2/2) Accurately ripped
 28   | (2/2) Accurately ripped
 29   | (2/2) Accurately ripped
 30   | (2/2) Accurately ripped
[AccurateRip ID: 004549c9-05bf1760-8d0f691e] disk not present in database.

Track Peak [ CRC32  ] [W/O NULL] [  LOG   ]
 --  100,0 [2B7A6119] [2441DD2D]   CRC32
 01   54,3 [F3FA0B5B] [31D31CF1]
 02   53,1 [FB2BA85C] [87D700DB]
 03   52,1 [2A7CF036] [7CB3F6F7]
 04   71,4 [309E5A9D] [D1FA5099]
 05   63,1 [C84EFE6B] [F7AF348A]
 06   56,0 [081A8A80] [D8210A2E]
 07   58,2 [70D67D95] [ABAB5AEC]
 08   79,1 [C8762202] [05D44E8A]
 09   88,6 [71254AEB] [6F259CC6]
 10  100,0 [B73BCEE4] [27B68E93]
 11   63,1 [A9A6159C] [474E5807]
 12   81,7 [DB4E139C] [8696F86D]
 13   83,8 [4A27A45C] [85D6B4D9]
 14   65,1 [649BF6A8] [E16A1E89]
 15   48,6 [D82A8D7D] [FA0DB070]
 16   46,9 [8183E148] [A11159AE]
 17   72,9 [93899BA8] [E85F2DF4]
 18   54,9 [20BDCCEB] [F3723AEE]
 19   68,2 [DEBF6ABA] [663A431C]
 20   62,6 [7C2A00DB] [CC4E621D]
 21   72,3 [9334A5AE] [EECB3953]
 22   67,4 [FAA04B9A] [F7962B3D]
 23   44,4 [C4325BAB] [41361AEF]
 24   53,6 [C1920DB7] [82F25909]
 25   65,5 [E865B59B] [486E328A]
 26   53,2 [0EB0FBB7] [9E68DC5A]
 27   48,0 [348AA45E] [8932C6B8]
 28   58,7 [9BAFB964] [ABA8BE85]
 29  100,0 [B6012A3C] [5FACF6F6]
 30   83,5 [31563682] [92D80348]
 
Не забывайте говорить Спасибо. Не уходите с раздачи!   
Торрент: Зарегистрирован [07 окт 2014, 07:48] Для скачивания .torrent
необходима регистрация
Или скачать с помощью
MediaGet
Статус:
Проверен
 
.torrent скачан: 0 раз
Хэш: 1b4fdd64a658fcc1b386e7b3f796b7f16d21a7e6
Размер: 459.72 МБ (482 055 934 байт)
Стать Автором раздачи
 
 
Раздал: 6.67 ГБ
Скачал: 302.5 МБ
Ратио: 22.576
Сообщения: 374198
Зарегистрирован: 17 апр 2014, 11:05


  • Похожие торренты
    Ответы
    Просмотры
    Последнее сообщение

Вернуться в Сборники "Зарубежный Metal" (lossless)

Ресурс не предоставляет электронные версии произведений, а занимается лишь коллекционированием и каталогизацией ссылок, присылаемых и публикуемых на форуме нашими читателями. Если вы являетесь правообладателем какого-либо представленного материала и не желаете чтобы ссылка на него находилась в нашем каталоге, свяжитесь с нами и мы незамедлительно удалим её. Файлы для обмена на трекере предоставлены пользователями сайта, и администрация не несёт ответственности за их содержание. Просьба не заливать файлы, защищенные авторскими правами, а также файлы нелегального содержания!
cron