(Brutal Death Metal) VA - Extreme Brutal Violence - The End Of Killed - 2010, FLAC (image+.cue), lossless

 
 Статистика раздачи 
Размер: 540.92 МБ   |  Зарегистрирован: 07 окт 2014, 07:49   |   .torrent скачан: 0 раз
Сидеров: 1  [ 0 байт/сек ]     Личеров: 0  [ 0 байт/сек ]  
  

(Brutal Death Metal) VA - Extreme Brutal Violence - The End Of Killed - 2010, FLAC (image+.cue), lossless

Сообщение Thistoll » 07 окт 2014, 07:49

Extreme Brutal Violence - The End Of Killed

Жанр: Brutal Death Metal
Год издания диска: 2010
Издатель (лейбл): Brutalhomed Records, Biji Kopi Records
Страна: Indonesia
Аудиокодек: FLAC (*.flac)
Тип рипа: image+.cue
Битрейт аудио: lossless
Продолжительность: 01:21:37
Источник (релизер): Оригинальный Диск
Наличие сканов в содержимом раздачи: да
Треклист:
1. Wafat - Eye Of Blood
2. Demigod - Damn
3. Kolobos - Reinkarnasi
4. Nicrovaginal - Muntah Sperma
5. Disinfected - Dendam Terasa
6. Death Of Authority - Panic Satuation
7. Critical Defacement - Crime Of The Century
8. Killer Instinct - Diagnosa Syndrome Sosial
9. Sekarat Berkarat - BerKarat
10. Jasad - Rotten Body Fluids
11. Deathroll Kapow - I Declare
12. Injury Deepen - Ultimate Torture
13. Ultimatum - Pasukan Pengibar Bendera
14. Troops Of Brutality - I Thrown Your Life
15. Failed Virgin - Human Being The Infinite Decay
16. Rest In Peace - Mati Secara Perlahan
17. Paku Mati - Tak Akan Pernah Mati
18. Deception - Equivalent Deception Licker
19. Collateral Bleeding - Istriku Melahirkan Butho
20. Antrodemus - Remembering Death
21. Drop - Fuck Your Religion
22. Sadistis - Halusinasi Mati
23. Daska - Sesat
24. Zorboothus - Bagudung Mencari Lubang
25. Fadihat - Cry Rebel
26. Gragod - Masturbation Is Not A Crime
27. Trauma - ...Dan Mimpi BurukKu Telah Berakhir
28. Inimical - When Will This End
Код: Выделить всё
Exact Audio Copy V1.0 beta 2 from 29. April 2011

EAC extraction logfile from 9. July 2011, 13:06

Various Artists / Extreme Brutal Violence: The End Of Killed

Used drive  : PIONEER DVD-RW  DVR-215D   Adapter: 3  ID: 0

Read mode               : Secure
Utilize accurate stream : Yes
Defeat audio cache      : Yes
Make use of C2 pointers : No

Read offset correction                      : 48
Overread into Lead-In and Lead-Out          : No
Fill up missing offset samples with silence : Yes
Delete leading and trailing silent blocks   : No
Null samples used in CRC calculations       : Yes
Used interface                              : Installed external ASPI interface

Used output format              : User Defined Encoder
Selected bitrate                : 1024 kBit/s
Quality                         : High
Add ID3 tag                     : No
Command line compressor         : C:\Program Files\Exact Audio Copy\Flac\flac.exe
Additional command line options : -8 -V %source% -T "ARTIST=%albumartist%" -T "TITLE=%title%" -T "ALBUM=%albumtitle%" -T "DATE=%year%" -T "GENRE=%genre%"

TOC of the extracted CD

     Track |   Start  |  Length  | Start sector | End sector
    ---------------------------------------------------------
        1  |  0:00.00 |  3:37.51 |         0    |    16325
        2  |  3:37.51 |  3:07.29 |     16326    |    30379
        3  |  6:45.05 |  4:03.74 |     30380    |    48678
        4  | 10:49.04 |  1:48.72 |     48679    |    56850
        5  | 12:38.01 |  3:01.03 |     56851    |    70428
        6  | 15:39.04 |  2:43.66 |     70429    |    82719
        7  | 18:22.70 |  2:08.05 |     82720    |    92324
        8  | 20:31.00 |  3:17.36 |     92325    |   107135
        9  | 23:48.36 |  2:14.62 |    107136    |   117247
       10  | 26:03.23 |  2:40.74 |    117248    |   129321
       11  | 28:44.22 |  3:33.74 |    129322    |   145370
       12  | 32:18.21 |  3:42.09 |    145371    |   162029
       13  | 36:00.30 |  2:28.57 |    162030    |   173186
       14  | 38:29.12 |  2:42.06 |    173187    |   185342
       15  | 41:11.18 |  2:02.21 |    185343    |   194513
       16  | 43:13.39 |  2:02.05 |    194514    |   203668
       17  | 45:15.44 |  4:05.57 |    203669    |   222100
       18  | 49:21.26 |  1:39.30 |    222101    |   229555
       19  | 51:00.56 |  1:53.29 |    229556    |   238059
       20  | 52:54.10 |  4:22.06 |    238060    |   257715
       21  | 57:16.16 |  4:01.01 |    257716    |   275791
       22  | 61:17.17 |  3:08.41 |    275792    |   289932
       23  | 64:25.58 |  2:14.05 |    289933    |   299987
       24  | 66:39.63 |  1:45.01 |    299988    |   307863
       25  | 68:24.64 |  2:18.05 |    307864    |   318218
       26  | 70:42.69 |  2:01.22 |    318219    |   327315
       27  | 72:44.16 |  4:36.00 |    327316    |   348015
       28  | 77:20.16 |  4:16.48 |    348016    |   367263

Range status and errors

Selected range

     Filename D:\_HxHolocaust collection\V.A. -2010- Extreme Brutal Violence - The End Of Killed\V.A. - Extreme Brutal Violence... The End Of Killed.wav

     Peak level 71.7 %
     Extraction speed 2.4 X
     Range quality 99.9 %
     Test CRC 4A4EDAED
     Copy CRC 4A4EDAED
     Copy OK

No errors occurred

AccurateRip summary

Track  1  not present in database
Track  2  not present in database
Track  3  not present in database
Track  4  not present in database
Track  5  not present in database
Track  6  not present in database
Track  7  not present in database
Track  8  not present in database
Track  9  not present in database
Track 10  not present in database
Track 11  not present in database
Track 12  not present in database
Track 13  not present in database
Track 14  not present in database
Track 15  not present in database
Track 16  not present in database
Track 17  not present in database
Track 18  not present in database
Track 19  not present in database
Track 20  not present in database
Track 21  not present in database
Track 22  not present in database
Track 23  not present in database
Track 24  not present in database
Track 25  not present in database
Track 26  not present in database
Track 27  not present in database
Track 28  not present in database

None of the tracks are present in the AccurateRip database

End of status report

==== Log checksum A929800F4327CD349BFC2163627E891B7077C8AFAEB6A104036ADB1BBE94D8C6 ====
 
Не забывайте говорить Спасибо. Не уходите с раздачи!   
Торрент: Зарегистрирован [07 окт 2014, 07:49] Для скачивания .torrent
необходима регистрация
Или скачать с помощью
MediaGet
Статус:
Проверен
 
.torrent скачан: 0 раз
Хэш: 6771d77203cea9c0d6e3e4d266a9ed8c855728c1
Размер: 540.92 МБ (567 195 320 байт)
Стать Автором раздачи
 
 
Раздал: 6.67 ГБ
Скачал: 302.5 МБ
Ратио: 22.576
Сообщения: 374198
Зарегистрирован: 17 апр 2014, 11:05


  • Похожие торренты
    Ответы
    Просмотры
    Последнее сообщение

Вернуться в Сборники "Зарубежный Metal" (lossless)

Ресурс не предоставляет электронные версии произведений, а занимается лишь коллекционированием и каталогизацией ссылок, присылаемых и публикуемых на форуме нашими читателями. Если вы являетесь правообладателем какого-либо представленного материала и не желаете чтобы ссылка на него находилась в нашем каталоге, свяжитесь с нами и мы незамедлительно удалим её. Файлы для обмена на трекере предоставлены пользователями сайта, и администрация не несёт ответственности за их содержание. Просьба не заливать файлы, защищенные авторскими правами, а также файлы нелегального содержания!
cron