(Grindcore) VA - An Old Fashioned Grindcore Assault - 2003, FLAC (image+.cue), lossless

 
 Статистика раздачи 
Размер: 435.98 МБ   |  Зарегистрирован: 07 окт 2014, 07:50   |   .torrent скачан: 0 раз
Сидеров: 1  [ 0 байт/сек ]     Личеров: 1  [ 0 байт/сек ]  
  

(Grindcore) VA - An Old Fashioned Grindcore Assault - 2003, FLAC (image+.cue), lossless

Сообщение Thistoll » 07 окт 2014, 07:50

An Old Fashioned Grindcore Assault

Жанр: Grindcore
Год издания диска: 2003
Издатель (лейбл): Fundacion Juan Herrero, Cooperaccion Records, Opus Dead Records Víctimas Del Progreso - Crímenes De Estado, Genital Herpess Records
Страна: World Wide
Аудиокодек: FLAC (*.flac)
Тип рипа: image+.cue
Битрейт аудио: lossless
Продолжительность: 54:24
Источник (релизер): Оригинальный Диск
Наличие сканов в содержимом раздачи: да
01 Agathocles - Retardation
02 Agathocles - Cruelty For Popularity
03 Agathocles - Incarceration
04 Ulcerrhoea - The Truth In Demise
05 Ulcerrhoea - Human Mass Product
06 Ulcerrhoea - Vacuum Packed & Empty
07 Ulcerrhoea - Submit To Nothing
08 Ulcerrhoea - Liberate Yourself
09 Ulcerrhoea - Stagnated
10 Ulcerrhoea - Cast Me Out
11 Needful Things - Something Inside Us
12 Needful Things - Pharmacology
13 Needful Things - Phobia
14 Demisor - Embittered By......
15 Demisor - Repetition
16 Demisor - Triggered By Hatred
17 Demisor - Malicious Malificarum
18 Demisor - Untitled (raw mix....)
19 Ulzera - Support The Fashion
20 Ulzera - Integrate Or Die
21 Ulzera - Slaves
22 Ulzera - Victims
23 Ulzera - Born To Be Free
24 Entrails Massacre - Hell On Earth
25 Entrails Massacre - Human Value
26 Entrails Massacre - Mouth Of The Wise
27 Entrails Massacre - Things That Keep Me Awake @ Night
28 Rot - Insane & Elegance Of Life
29 Rot - The Uncontrollable Urge
30 Rot - Modern Man Suicide
31 Progeria - Vicarious
32 Progeria - Enemies
33 Progeria - Her Addiction
34 Progeria - Passing Blame
35 Progeria - Forgetting Me
36 Progeria - No Voice
37 Progeria - Three Planet Theory
38 Bizarre X - Dismised
39 Bizarre X - Sorry
40 Bizarre X - Traeumer
41 F.U.B.A.R. - Run
42 F.U.B.A.R. - Uniformed Loser
43 F.U.B.A.R. - Draw The Line
44 F.U.B.A.R. - Way Of The Fool
45 Subcut - Trinchando Nossas Valas
46 Subcut - Determinando As Vontades À Inércia
47 Subcut - Ciudadania
48 Subcut - Últimos Minutos De Consciência
49 Disturbance Project - Mentiras
50 Disturbance Project - Vacío De Ideas
51 Disturbance Project - Puto Cerebro
52 Lycantrophy - Bombs And Death
53 Lycantrophy - To Make One Happy
54 Lycantrophy - Life
55 Lycantrophy - Slepé Iluze
56 Denak - Egoísmo
57 Denak - Los Mismos Siempre
58 Denak - Engañadomehas
59 Hat - Palurdo
60 Hat - La Batalla Está Perdida
Код: Выделить всё
Exact Audio Copy V0.99 prebeta 5 from 4. May 2009

EAC extraction logfile from 3. September 2010, 20:23

Various / An Old Fashioned Grindcore Assault

Used drive  : PIONEER DVD-RW  DVR-215D   Adapter: 0  ID: 0

Read mode               : Secure
Utilize accurate stream : Yes
Defeat audio cache      : Yes
Make use of C2 pointers : No

Read offset correction                      : 48
Overread into Lead-In and Lead-Out          : No
Fill up missing offset samples with silence : Yes
Delete leading and trailing silent blocks   : No
Null samples used in CRC calculations       : Yes
Used interface                              : Installed external ASPI interface

Used output format              : User Defined Encoder
Selected bitrate                : 1024 kBit/s
Quality                         : High
Add ID3 tag                     : No
Command line compressor         : C:\Program Files\Exact Audio Copy\Flac\flac.exe
Additional command line options : -8 -V -T "ARTIST=%a" -T "TITLE=%t" -T "ALBUM=%g" -T "DATE=%y" -T "TRACKNUMBER=%n" -T "GENRE=%m" -T "COMMENT=EAC FLAC -8" %s

TOC of the extracted CD

     Track |   Start  |  Length  | Start sector | End sector
    ---------------------------------------------------------
        1  |  0:00.00 |  0:39.62 |         0    |     2986
        2  |  0:39.62 |  0:45.48 |      2987    |     6409
        3  |  1:25.35 |  1:32.56 |      6410    |    13365
        4  |  2:58.16 |  0:30.64 |     13366    |    15679
        5  |  3:29.05 |  0:42.59 |     15680    |    18888
        6  |  4:11.64 |  0:38.66 |     18889    |    21804
        7  |  4:50.55 |  0:43.47 |     21805    |    25076
        8  |  5:34.27 |  0:46.59 |     25077    |    28585
        9  |  6:21.11 |  0:32.57 |     28586    |    31042
       10  |  6:53.68 |  0:21.06 |     31043    |    32623
       11  |  7:14.74 |  1:27.35 |     32624    |    39183
       12  |  8:42.34 |  2:21.37 |     39184    |    49795
       13  | 11:03.71 |  2:36.30 |     49796    |    61525
       14  | 13:40.26 |  0:30.72 |     61526    |    63847
       15  | 14:11.23 |  0:38.65 |     63848    |    66762
       16  | 14:50.13 |  0:33.14 |     66763    |    69251
       17  | 15:23.27 |  0:28.49 |     69252    |    71400
       18  | 15:52.01 |  0:37.60 |     71401    |    74235
       19  | 16:29.61 |  1:10.19 |     74236    |    79504
       20  | 17:40.05 |  0:42.55 |     79505    |    82709
       21  | 18:22.60 |  0:51.74 |     82710    |    86608
       22  | 19:14.59 |  0:39.40 |     86609    |    89573
       23  | 19:54.24 |  0:38.65 |     89574    |    92488
       24  | 20:33.14 |  1:39.12 |     92489    |    99925
       25  | 22:12.26 |  0:35.58 |     99926    |   102608
       26  | 22:48.09 |  0:54.01 |    102609    |   106659
       27  | 23:42.10 |  1:07.30 |    106660    |   111714
       28  | 24:49.40 |  0:46.59 |    111715    |   115223
       29  | 25:36.24 |  1:35.36 |    115224    |   122384
       30  | 27:11.60 |  1:13.39 |    122385    |   127898
       31  | 28:25.24 |  0:29.28 |    127899    |   130101
       32  | 28:54.52 |  0:30.63 |    130102    |   132414
       33  | 29:25.40 |  0:22.58 |    132415    |   134122
       34  | 29:48.23 |  0:29.33 |    134123    |   136330
       35  | 30:17.56 |  0:27.09 |    136331    |   138364
       36  | 30:44.65 |  0:35.69 |    138365    |   141058
       37  | 31:20.59 |  0:47.46 |    141059    |   144629
       38  | 32:08.30 |  0:53.38 |    144630    |   148642
       39  | 33:01.68 |  0:42.12 |    148643    |   151804
       40  | 33:44.05 |  1:22.61 |    151805    |   158015
       41  | 35:06.66 |  0:46.67 |    158016    |   161532
       42  | 35:53.58 |  0:51.31 |    161533    |   165388
       43  | 36:45.14 |  1:04.06 |    165389    |   170194
       44  | 37:49.20 |  1:55.35 |    170195    |   178854
       45  | 39:44.55 |  0:44.12 |    178855    |   182166
       46  | 40:28.67 |  1:37.00 |    182167    |   189441
       47  | 42:05.67 |  0:46.09 |    189442    |   192900
       48  | 42:52.01 |  0:53.11 |    192901    |   196886
       49  | 43:45.12 |  0:59.07 |    196887    |   201318
       50  | 44:44.19 |  0:55.37 |    201319    |   205480
       51  | 45:39.56 |  0:43.05 |    205481    |   208710
       52  | 46:22.61 |  0:25.59 |    208711    |   210644
       53  | 46:48.45 |  0:53.17 |    210645    |   214636
       54  | 47:41.62 |  0:26.22 |    214637    |   216608
       55  | 48:08.09 |  0:45.15 |    216609    |   219998
       56  | 48:53.24 |  1:09.44 |    219999    |   225217
       57  | 50:02.68 |  0:57.46 |    225218    |   229538
       58  | 51:00.39 |  1:32.53 |    229539    |   236491
       59  | 52:33.17 |  1:04.54 |    236492    |   241345
       60  | 53:37.71 |  0:45.42 |    241346    |   244762

Range status and errors

Selected range

     Filename F:\F.L.R\V.A. - (2004) An Old Fashioned Grindcore Assault\An Old Fashioned Grindcore Assault.wav

     Peak level 100.0 %
     Range quality 100.0 %
     Test CRC 3EFCFB1E
     Copy CRC 3EFCFB1E
     Copy OK

No errors occurred

AccurateRip summary

Track  1  not present in database
Track  2  not present in database
Track  3  not present in database
Track  4  not present in database
Track  5  not present in database
Track  6  not present in database
Track  7  not present in database
Track  8  not present in database
Track  9  not present in database
Track 10  not present in database
Track 11  not present in database
Track 12  not present in database
Track 13  not present in database
Track 14  not present in database
Track 15  not present in database
Track 16  not present in database
Track 17  not present in database
Track 18  not present in database
Track 19  not present in database
Track 20  not present in database
Track 21  not present in database
Track 22  not present in database
Track 23  not present in database
Track 24  not present in database
Track 25  not present in database
Track 26  not present in database
Track 27  not present in database
Track 28  not present in database
Track 29  not present in database
Track 30  not present in database
Track 31  not present in database
Track 32  not present in database
Track 33  not present in database
Track 34  not present in database
Track 35  not present in database
Track 36  not present in database
Track 37  not present in database
Track 38  not present in database
Track 39  not present in database
Track 40  not present in database
Track 41  not present in database
Track 42  not present in database
Track 43  not present in database
Track 44  not present in database
Track 45  not present in database
Track 46  not present in database
Track 47  not present in database
Track 48  not present in database
Track 49  not present in database
Track 50  not present in database
Track 51  not present in database
Track 52  not present in database
Track 53  not present in database
Track 54  not present in database
Track 55  not present in database
Track 56  not present in database
Track 57  not present in database
Track 58  not present in database
Track 59  not present in database
Track 60  not present in database

None of the tracks are present in the AccurateRip database

End of status report
 
Не забывайте говорить Спасибо. Не уходите с раздачи!   
Торрент: Зарегистрирован [07 окт 2014, 07:50] Для скачивания .torrent
необходима регистрация
Или скачать с помощью
MediaGet
Статус:
Проверен
 
.torrent скачан: 0 раз
Хэш: 9bbec6959a296e11227151f45e5ad4d26d48ae9e
Размер: 435.98 МБ (457 158 091 байт)
Стать Автором раздачи
 
 
Раздал: 6.67 ГБ
Скачал: 302.5 МБ
Ратио: 22.576
Сообщения: 374198
Зарегистрирован: 17 апр 2014, 11:05


  • Похожие торренты
    Ответы
    Просмотры
    Последнее сообщение

Вернуться в Сборники "Зарубежный Metal" (lossless)

Ресурс не предоставляет электронные версии произведений, а занимается лишь коллекционированием и каталогизацией ссылок, присылаемых и публикуемых на форуме нашими читателями. Если вы являетесь правообладателем какого-либо представленного материала и не желаете чтобы ссылка на него находилась в нашем каталоге, свяжитесь с нами и мы незамедлительно удалим её. Файлы для обмена на трекере предоставлены пользователями сайта, и администрация не несёт ответственности за их содержание. Просьба не заливать файлы, защищенные авторскими правами, а также файлы нелегального содержания!
cron