(Punk, Hard Rock, NWOBHM, Heavy Metal) V / A - Full Metal Garage: The Songs That Drove Metallica - 2006, FLAC (image+.cue)

 
 Статистика раздачи 
Размер: 935.07 МБ   |  Зарегистрирован: 07 окт 2014, 07:50   |   .torrent скачан: 0 раз
Сидеров: 1  [ 0 байт/сек ]     Личеров: 0  [ 0 байт/сек ]  
  

(Punk, Hard Rock, NWOBHM, Heavy Metal) V / A - Full Metal Garage: The Songs That Drove Metallica - 2006, FLAC (image+.cue)

Сообщение Thistoll » 07 окт 2014, 07:50

V / A - Full Metal Garage: The Songs That Drove Metallica

Жанр: Punk, Hard Rock, NWOBHM, Heavy Metal
Год выпуска диска: 2006
Производитель диска: Великобритания
Аудио кодек: FLAC
Тип рипа: image+.cue
Продолжительность: 50:26 + 1:17:37
Трэклист:
Диск 1

Discharge - Free Speech For The Dumb
Diamond Head - It’s Electric
Black Sabbath - Sabbra Cadabra
The Misfits - Die Die My Darling
Nick Cave - Loverman
Mercyful Fate - Curse Of The Pharaohs
Mercyful Fate - Evil
Blue Oyster Cult - Astronomy
Thin Lizzy - Whiskey In The Jar
Lynyrd Skynyrd - Tuesday’s Gone
Discharge - The More I See

Диск 2

Diamond Head - Helpless
Holocaust - The Small Hours
Killing Joke - The Wait
Budgie - Crash Course In Brain Surgery
Diamond Head - Am I Evil
Blitzkrieg - Blitzkrieg
Budgie - Breadfan
Diamond Head - The Prince
Anti Nowhere League - So What
Sweet Savage - Killing Time (’96 version)
Motorhead - Overkill
Motorhead - Too Late Too Late
Savage - Let It Loose
Diamond Head - Sucking My Love
Savage - Dirty Money
Jaguar – Stormchild
Доп. информация: Сборник оригиналов песен, которые послужили источником вдохновения для Металлики при записи альбома каверов Garage Inc. В то же время трек-листы не совпадают. На данном релизе нет Turn the page, Last caress / Green hell, Stone cold crazy, Damage case, Stone dead forever. Так что этот Metal Garage не совсем Full. Зато есть Let It Loose, Sucking My Love, Dirty Money, Stormchild. Почему так – не знаю. Может, кто-то сможет объяснить. Помещаю раздачу в данный форум, т. к. 14 песен из 27 – несомненно, хэви.
Exact Audio Copy V0.99 prebeta 5 from 4. May 2009

EAC extraction logfile from 27. April 2010, 20:37

Various / Full Metal Garage : The Songs That Drove Metallica (CD 1)

Used drive : ASUS DRW-22B2S Adapter: 0 ID: 1

Read mode : Secure
Utilize accurate stream : Yes
Defeat audio cache : Yes
Make use of C2 pointers : No

Read offset correction : 6
Overread into Lead-In and Lead-Out : No
Fill up missing offset samples with silence : Yes
Delete leading and trailing silent blocks : No
Null samples used in CRC calculations : Yes
Used interface : Native Win32 interface for Win NT & 2000

Used output format : Internal WAV Routines
Sample format : 44.100 Hz; 16 Bit; Stereo

TOC of the extracted CD

Track | Start | Length | Start sector | End sector
---------------------------------------------------------
1 | 0:00.00 | 2:15.42 | 0 | 10166
2 | 2:15.42 | 3:35.29 | 10167 | 26320
3 | 5:50.71 | 5:54.03 | 26321 | 52873
4 | 11:44.74 | 3:09.27 | 52874 | 67075
5 | 14:54.26 | 4:56.00 | 67076 | 89275
6 | 19:50.26 | 3:57.37 | 89276 | 107087
7 | 23:47.63 | 4:47.28 | 107088 | 128640
8 | 28:35.16 | 6:29.04 | 128641 | 157819
9 | 35:04.20 | 5:46.66 | 157820 | 183835
10 | 40:51.11 | 7:32.42 | 183836 | 217777
11 | 48:23.53 | 2:03.09 | 217778 | 227011

Range status and errors

Selected range

Filename C:\Various - Full Metal Garage - The Songs That Drove Metallica (CD 1).wav

Peak level 99.8 %
Range quality 100.0 %
Copy CRC AFBC6A8F
Copy OK

No errors occurred

AccurateRip summary

Track 1 accurately ripped (confidence 2) [9DF00D91]
Track 2 accurately ripped (confidence 2) [9B06DFCE]
Track 3 accurately ripped (confidence 2) [2D84CF4C]
Track 4 accurately ripped (confidence 2) [DF1B1DE6]
Track 5 accurately ripped (confidence 2) [5AFE770B]
Track 6 accurately ripped (confidence 2) [F80774F5]
Track 7 accurately ripped (confidence 2) [95DEC758]
Track 8 accurately ripped (confidence 2) [52F88EDB]
Track 9 accurately ripped (confidence 2) [211120DF]
Track 10 accurately ripped (confidence 2) [9EC53B52]
Track 11 accurately ripped (confidence 2) [C2AACB34]

All tracks accurately ripped

End of status report
Exact Audio Copy V0.99 prebeta 5 from 4. May 2009

EAC extraction logfile from 27. April 2010, 14:08

Various / Full Metal Garage : The Songs That Drove Metallica (CD 2)

Used drive : ASUS DRW-22B2S Adapter: 0 ID: 1

Read mode : Secure
Utilize accurate stream : Yes
Defeat audio cache : Yes
Make use of C2 pointers : No

Read offset correction : 6
Overread into Lead-In and Lead-Out : No
Fill up missing offset samples with silence : Yes
Delete leading and trailing silent blocks : No
Null samples used in CRC calculations : Yes
Used interface : Native Win32 interface for Win NT & 2000

Used output format : Internal WAV Routines
Sample format : 44.100 Hz; 16 Bit; Stereo

TOC of the extracted CD

Track | Start | Length | Start sector | End sector
---------------------------------------------------------
1 | 0:00.00 | 6:53.28 | 0 | 31002
2 | 6:53.28 | 6:17.41 | 31003 | 59318
3 | 13:10.69 | 3:43.04 | 59319 | 76047
4 | 16:53.73 | 2:37.26 | 76048 | 87848
5 | 19:31.24 | 7:42.53 | 87849 | 122551
6 | 27:14.02 | 3:23.04 | 122552 | 137780
7 | 30:37.06 | 6:05.33 | 137781 | 165188
8 | 36:42.39 | 6:25.30 | 165189 | 194093
9 | 43:07.69 | 3:11.68 | 194094 | 208486
10 | 46:19.62 | 2:37.69 | 208487 | 220330
11 | 48:57.56 | 5:12.55 | 220331 | 243785
12 | 54:10.36 | 3:23.18 | 243786 | 259028
13 | 57:33.54 | 3:17.28 | 259029 | 273831
14 | 60:51.07 | 9:29.25 | 273832 | 316531
15 | 70:20.32 | 4:41.06 | 316532 | 337612
16 | 75:01.38 | 2:35.59 | 337613 | 349296

Range status and errors

Selected range

Filename C:\Various - Full Metal Garage - The Songs That Drove Metallica (CD 2).wav

Peak level 100.0 %
Range quality 100.0 %
Copy CRC 64FAEA6F
Copy OK

No errors occurred

AccurateRip summary

Track 1 accurately ripped (confidence 2) [F3B0040E]
Track 2 accurately ripped (confidence 2) [2615B292]
Track 3 accurately ripped (confidence 2) [01871D09]
Track 4 accurately ripped (confidence 2) [6F98585A]
Track 5 accurately ripped (confidence 2) [A58D5D60]
Track 6 accurately ripped (confidence 2) [FE5AD6D2]
Track 7 accurately ripped (confidence 2) [4F84D15F]
Track 8 accurately ripped (confidence 2) [3A3AC37C]
Track 9 accurately ripped (confidence 2) [A5E6F8BD]
Track 10 accurately ripped (confidence 2) [0A8D59E0]
Track 11 accurately ripped (confidence 2) [451339DE]
Track 12 accurately ripped (confidence 2) [2368B2D9]
Track 13 accurately ripped (confidence 2) [7BF2B97B]
Track 14 accurately ripped (confidence 2) [9000D5E6]
Track 15 accurately ripped (confidence 2) [FCC56389]
Track 16 accurately ripped (confidence 2) [1AA9A727]

All tracks accurately ripped

End of status report
 
Не забывайте говорить Спасибо. Не уходите с раздачи!   
Торрент: Зарегистрирован [07 окт 2014, 07:50] Для скачивания .torrent
необходима регистрация
Или скачать с помощью
MediaGet
Статус:
Проверен
 
.torrent скачан: 0 раз
Хэш: d13ad55aff84b39803ec37ab6532658aec872b81
Размер: 935.07 МБ (980 494 789 байт)
Стать Автором раздачи
 
 
Раздал: 6.67 ГБ
Скачал: 302.5 МБ
Ратио: 22.576
Сообщения: 374198
Зарегистрирован: 17 апр 2014, 11:05


  • Похожие торренты
    Ответы
    Просмотры
    Последнее сообщение

Вернуться в Сборники "Зарубежный Metal" (lossless)

Ресурс не предоставляет электронные версии произведений, а занимается лишь коллекционированием и каталогизацией ссылок, присылаемых и публикуемых на форуме нашими читателями. Если вы являетесь правообладателем какого-либо представленного материала и не желаете чтобы ссылка на него находилась в нашем каталоге, свяжитесь с нами и мы незамедлительно удалим её. Файлы для обмена на трекере предоставлены пользователями сайта, и администрация не несёт ответственности за их содержание. Просьба не заливать файлы, защищенные авторскими правами, а также файлы нелегального содержания!
cron