(Grindcore) VA - Japanese Assault - 2003, FLAC (image+.cue), lossless

 
 Статистика раздачи 
Размер: 427.47 МБ   |  Зарегистрирован: 07 окт 2014, 07:50   |   .torrent скачан: 0 раз
Сидеров: 1  [ 0 байт/сек ]     Личеров: 1  [ 0 байт/сек ]  
  

(Grindcore) VA - Japanese Assault - 2003, FLAC (image+.cue), lossless

Сообщение Thistoll » 07 окт 2014, 07:50

Japanese Assault

Жанр: Grindcore
Год издания: 2003
Издатель (лейбл): Relapse Records
Страна: Japan
Аудиокодек: FLAC (*.flac)
Тип рипа: image+.cue
Битрейт аудио: lossless
Продолжительность: 55:46
Источник (релизер): Оригинальный Диск
Наличие сканов в содержимом раздачи: да
Треклист:
01. SENSELESS APOCALYPSE - Again
02. SENSELESS APOCALYPSE - Progress
03. SENSELESS APOCALYPSE - Resident Infinity
04. SENSELESS APOCALYPSE - Emotional Jerryfish
05. SENSELESS APOCALYPSE - Wedge
06. SENSELESS APOCALYPSE - Smell Out
07. SENSELESS APOCALYPSE - Pain in the Ass
08. SENSELESS APOCALYPSE - Snap!
09. SENSELESS APOCALYPSE - No Intellect
10. SENSELESS APOCALYPSE - Loquacity
11. SENSELESS APOCALYPSE - Look Ahead
12. SENSELESS APOCALYPSE - Sandy Molding
13. SENSELESS APOCALYPSE - Strange a Custum
14. SENSELESS APOCALYPSE - Say Silly Things
15. MUGA - Resuscitation
16. MUGA - Symbol of Ignorance
17. MUGA - Memory
18. MUGA - Camouflage
19. MUGA - Grotesque
20. REALIZED - World of Complete Black
21. REALIZED - Hellbound Earth
22. REALIZED - Good Mob Perdition
23. REALIZED - Undermined
24. REALIZED - Your Mind Demise
25. REALIZED - Tokyo Butterfly
26. REALIZED - Sore & Threat
27. REALIZED - Sympathy of Sickness
28. REALIZED - Human Mosquet
29. REALIZED - Think Nothing
30. REALIZED - S.E.K.I. (Sado Enema Karma & Idea)
31. REALIZED - Grindguignol Experience
32. REALIZED - High on Stench
33. REALIZED - Mental Blue Suicide
34. SWARRRM - Weakness
35. SWARRRM - Vanish
36. SWARRRM - Strength
37. SWARRRM - Suffer
Код: Выделить всё
Exact Audio Copy V1.0 beta 3 from 29. August 2011

EAC extraction logfile from 15. June 2012, 21:04

Various / Japanese Assault

Used drive  : ASUS    DRW-22B1LT   Adapter: 1  ID: 1

Read mode               : Secure
Utilize accurate stream : Yes
Defeat audio cache      : Yes
Make use of C2 pointers : No

Read offset correction                      : 6
Overread into Lead-In and Lead-Out          : No
Fill up missing offset samples with silence : Yes
Delete leading and trailing silent blocks   : No
Null samples used in CRC calculations       : Yes
Used interface                              : Installed external ASPI interface

Used output format              : User Defined Encoder
Selected bitrate                : 1024 kBit/s
Quality                         : High
Add ID3 tag                     : Yes
Command line compressor         : C:\Program Files (x86)\Exact Audio Copy\FLAC\FLAC.EXE
Additional command line options : -8 -V %source% -T "ARTIST=%albumartist%" -T "TITLE=%title%" -T "ALBUM=%albumtitle%" -T "DATE=%year%" -T "GENRE=%genre%"

TOC of the extracted CD

     Track |   Start  |  Length  | Start sector | End sector
    ---------------------------------------------------------
        1  |  0:00.00 |  2:04.63 |         0    |     9362
        2  |  2:04.63 |  0:30.35 |      9363    |    11647
        3  |  2:35.23 |  1:02.32 |     11648    |    16329
        4  |  3:37.55 |  0:29.20 |     16330    |    18524
        5  |  4:07.00 |  0:52.11 |     18525    |    22435
        6  |  4:59.11 |  1:24.18 |     22436    |    28753
        7  |  6:23.29 |  1:21.06 |     28754    |    34834
        8  |  7:44.35 |  0:53.31 |     34835    |    38840
        9  |  8:37.66 |  0:26.34 |     38841    |    40824
       10  |  9:04.25 |  1:01.27 |     40825    |    45426
       11  | 10:05.52 |  1:09.47 |     45427    |    50648
       12  | 11:15.24 |  0:35.35 |     50649    |    53308
       13  | 11:50.59 |  0:54.33 |     53309    |    57391
       14  | 12:45.17 |  1:10.68 |     57392    |    62709
       15  | 13:56.10 |  4:04.15 |     62710    |    81024
       16  | 18:00.25 |  2:01.67 |     81025    |    90166
       17  | 20:02.17 |  3:35.48 |     90167    |   106339
       18  | 23:37.65 |  2:09.69 |    106340    |   116083
       19  | 25:47.59 |  2:15.26 |    116084    |   126234
       20  | 28:03.10 |  1:46.34 |    126235    |   134218
       21  | 29:49.44 |  0:36.73 |    134219    |   136991
       22  | 30:26.42 |  1:20.46 |    136992    |   143037
       23  | 31:47.13 |  0:50.26 |    143038    |   146813
       24  | 32:37.39 |  0:58.31 |    146814    |   151194
       25  | 33:35.70 |  1:00.62 |    151195    |   155756
       26  | 34:36.57 |  1:07.70 |    155757    |   160851
       27  | 35:44.52 |  1:32.59 |    160852    |   167810
       28  | 37:17.36 |  1:26.65 |    167811    |   174325
       29  | 38:44.26 |  0:34.31 |    174326    |   176906
       30  | 39:18.57 |  0:35.47 |    176907    |   179578
       31  | 39:54.29 |  1:24.36 |    179579    |   185914
       32  | 41:18.65 |  0:36.44 |    185915    |   188658
       33  | 41:55.34 |  1:46.51 |    188659    |   196659
       34  | 43:42.10 |  2:57.66 |    196660    |   210000
       35  | 46:40.01 |  3:11.53 |    210001    |   224378
       36  | 49:51.54 |  1:49.64 |    224379    |   232617
       37  | 51:41.43 |  4:04.59 |    232618    |   250976

Range status and errors

Selected range

     Filename H:\_lossless 4 sarge_\V.A. -2003- Japanese Assault\Various - Japanese Assault.wav

     Peak level 100.0 %
     Extraction speed 7.1 X
     Range quality 100.0 %
     Test CRC 8E030927
     Copy CRC 8E030927
     Copy OK

No errors occurred

AccurateRip summary

Track  1  cannot be verified as accurate (confidence 1)  [D3CDA784], AccurateRip returned [824CEC2E]  (AR v2)
Track  2  cannot be verified as accurate (confidence 1)  [F1003078], AccurateRip returned [814FD665]  (AR v2)
Track  3  cannot be verified as accurate (confidence 1)  [931B8323], AccurateRip returned [5E6DB691]  (AR v2)
Track  4  cannot be verified as accurate (confidence 1)  [AAC1E17B], AccurateRip returned [2B1D27D5]  (AR v2)
Track  5  cannot be verified as accurate (confidence 1)  [3BAD24CC], AccurateRip returned [F5219567]  (AR v2)
Track  6  cannot be verified as accurate (confidence 1)  [4A345E2C], AccurateRip returned [04F369AD]  (AR v2)
Track  7  cannot be verified as accurate (confidence 1)  [0A6A8F97], AccurateRip returned [720DD13D]  (AR v2)
Track  8  cannot be verified as accurate (confidence 1)  [030051D2], AccurateRip returned [4E44F7DB]  (AR v2)
Track  9  cannot be verified as accurate (confidence 1)  [E5C9EFFA], AccurateRip returned [DF5DEF0B]  (AR v2)
Track 10  cannot be verified as accurate (confidence 1)  [132F7026], AccurateRip returned [2404E055]  (AR v2)
Track 11  cannot be verified as accurate (confidence 1)  [989731CA], AccurateRip returned [287B00F3]  (AR v2)
Track 12  cannot be verified as accurate (confidence 1)  [3F5FFEBD], AccurateRip returned [8B11E48A]  (AR v2)
Track 13  cannot be verified as accurate (confidence 1)  [9B06C5F7], AccurateRip returned [59EC0E6F]  (AR v2)
Track 14  cannot be verified as accurate (confidence 1)  [C3CB8A53], AccurateRip returned [FEEB9B0B]  (AR v2)
Track 15  cannot be verified as accurate (confidence 1)  [52C4F5B3], AccurateRip returned [C8817BEE]  (AR v2)
Track 16  cannot be verified as accurate (confidence 1)  [D9A96104], AccurateRip returned [75653AD7]  (AR v2)
Track 17  cannot be verified as accurate (confidence 1)  [EF7C5FC0], AccurateRip returned [DC7A3A33]  (AR v2)
Track 18  cannot be verified as accurate (confidence 1)  [692DD3F7], AccurateRip returned [A850B7D9]  (AR v2)
Track 19  cannot be verified as accurate (confidence 1)  [6DEBEE48], AccurateRip returned [4A3A7C97]  (AR v2)
Track 20  cannot be verified as accurate (confidence 1)  [8421BFA6], AccurateRip returned [A771EA7D]  (AR v2)
Track 21  cannot be verified as accurate (confidence 1)  [4BD3BFD6], AccurateRip returned [1FA70ADE]  (AR v2)
Track 22  cannot be verified as accurate (confidence 1)  [64C5991E], AccurateRip returned [82EAB449]  (AR v2)
Track 23  cannot be verified as accurate (confidence 1)  [475F50C1], AccurateRip returned [233BF4F5]  (AR v2)
Track 24  cannot be verified as accurate (confidence 1)  [0261D928], AccurateRip returned [0C51386B]  (AR v2)
Track 25  cannot be verified as accurate (confidence 1)  [DBC6FBD5], AccurateRip returned [7DB52643]  (AR v2)
Track 26  cannot be verified as accurate (confidence 1)  [EC3E8F79], AccurateRip returned [B933B282]  (AR v2)
Track 27  cannot be verified as accurate (confidence 1)  [20B791BF], AccurateRip returned [A29CEAA7]  (AR v2)
Track 28  cannot be verified as accurate (confidence 1)  [07E21113], AccurateRip returned [42457B78]  (AR v2)
Track 29  cannot be verified as accurate (confidence 1)  [398F46CE], AccurateRip returned [A26D7EF6]  (AR v2)
Track 30  cannot be verified as accurate (confidence 1)  [E0B1D902], AccurateRip returned [2A429F80]  (AR v2)
Track 31  cannot be verified as accurate (confidence 1)  [EA5412DE], AccurateRip returned [E088137F]  (AR v2)
Track 32  cannot be verified as accurate (confidence 1)  [1053BEBB], AccurateRip returned [22D82E83]  (AR v2)
Track 33  cannot be verified as accurate (confidence 1)  [697E2731], AccurateRip returned [4AA74198]  (AR v2)
Track 34  cannot be verified as accurate (confidence 1)  [340273A2], AccurateRip returned [7E5134C3]  (AR v2)
Track 35  cannot be verified as accurate (confidence 1)  [EFC02FE6], AccurateRip returned [B931D902]  (AR v2)
Track 36  cannot be verified as accurate (confidence 1)  [33A09E42], AccurateRip returned [16B52F08]  (AR v2)
Track 37  cannot be verified as accurate (confidence 1)  [C0DD05D6], AccurateRip returned [80A03954]  (AR v2)

No tracks could be verified as accurate
You may have a different pressing from the one(s) in the database

End of status report

---- CUETools DB Plugin V2.1.3

[CTDB TOCID: RQ4NJ4W6CkjLuV9Uj5rjpVjTscE-] disk not present in database, Submit result: RQ4NJ4W6CkjLuV9Uj5rjpVjTscE- has been uploaded

==== Log checksum 1C0D0D2CEC3CAB36ED5EADFFF27E830F486F16D776655EB409FD9E097FF3F774 ====
#77
 
Не забывайте говорить Спасибо. Не уходите с раздачи!   
Торрент: Зарегистрирован [07 окт 2014, 07:50] Для скачивания .torrent
необходима регистрация
Или скачать с помощью
MediaGet
Статус:
Проверен
 
.torrent скачан: 0 раз
Хэш: 12a150d83eb4270e2a8a288de874d12b058e451d
Размер: 427.47 МБ (448 239 785 байт)
Стать Автором раздачи
 
 
Раздал: 6.67 ГБ
Скачал: 302.5 МБ
Ратио: 22.576
Сообщения: 374198
Зарегистрирован: 17 апр 2014, 11:05


  • Похожие торренты
    Ответы
    Просмотры
    Последнее сообщение

Вернуться в Сборники "Зарубежный Metal" (lossless)

Ресурс не предоставляет электронные версии произведений, а занимается лишь коллекционированием и каталогизацией ссылок, присылаемых и публикуемых на форуме нашими читателями. Если вы являетесь правообладателем какого-либо представленного материала и не желаете чтобы ссылка на него находилась в нашем каталоге, свяжитесь с нами и мы незамедлительно удалим её. Файлы для обмена на трекере предоставлены пользователями сайта, и администрация не несёт ответственности за их содержание. Просьба не заливать файлы, защищенные авторскими правами, а также файлы нелегального содержания!
cron