(Heavy metal) VA - The Unholy Sounds Of The Demon Bell - A Tribute To Mercyful Fate - 1999, FLAC (image+.cue) lossless

 
 Статистика раздачи 
Размер: 587.58 МБ   |  Зарегистрирован: 07 окт 2014, 07:51   |   .torrent скачан: 2 раз
Сидеров: 1  [ 0 байт/сек ]     Личеров: 0  [ 0 байт/сек ]  
  

(Heavy metal) VA - The Unholy Sounds Of The Demon Bell - A Tribute To Mercyful Fate - 1999, FLAC (image+.cue) lossless

Сообщение Thistoll » 07 окт 2014, 07:51

The Unholy Sounds Of The Demon Bell - A Tribute To Mercyful Fate

Жанр: Heavy metal
Страна-производитель диска: Poland
Год издания диска: 1999
Издатель (лейбл): Still Dead Production
Номер по каталогу: SDP CD-99102
Аудио кодек: FLAC (*.flac)
Тип рипа: image+.cue
Битрейт аудио: lossless
Источник (релизер): Original CD (Twilight_Elf)
Наличие сканов в содержимом раздачи: да
Треклист:
1. Equinox - Gypsy (3:16)
2. Soilwork - Egypt (5:21)
3. Deceased - Doomed By The Living Dead (4:50)
4. Memory Garden - Nightmare Be Thy Name (3:26)
5. Acheron - Room Of Golden Air (3:00)
6. Morta Skuld - Desecration Of Souls (4:51)
7. Burning Inside - Evil (4:38)
8. Dan Swano - Melissa (5:27)
9. Hemisfear - Black Funeral (2:54)
10. Vital Remains - To One Far Away/Come To The Sabbath (6:32)
11. Varathron - Nuns Have No Fun (4:39)
12. Mystic-Force - Curse Of The Pharaons (3:41)
13. Psycho Scream - A Dangerous Meeting (5:05)
14. Eternal Autumn - Return Of The Vampyre (4:15)
15. Doomstone - At The Sound Of The Demon Bell (5:06)
16. Necrophagia - Devil Eyes (4:21)
17. T.A.R. - Torture (1629) (4:54)
Код: Выделить всё
Exact Audio Copy V0.99 prebeta 5 from 4. May 2009

EAC extraction logfile from 8. September 2010, 22:10

Mercyful Fate / The Unholy Sounds of the Demon Bells - A Tribute To Mercyful Fate (SDP CD-99102)

Used drive  : SlimtypeDVD A  DS8A1P   Adapter: 0  ID: 0

Read mode               : Secure
Utilize accurate stream : Yes
Defeat audio cache      : Yes
Make use of C2 pointers : No

Read offset correction                      : 594
Overread into Lead-In and Lead-Out          : No
Fill up missing offset samples with silence : Yes
Delete leading and trailing silent blocks   : No
Null samples used in CRC calculations       : Yes
Used interface                              : Native Win32 interface for Win NT & 2000

Used output format              : User Defined Encoder
Selected bitrate                : 768 kBit/s
Quality                         : High
Add ID3 tag                     : No
Command line compressor         : C:\Program Files\Exact Audio Copy\FLAC\FLAC.EXE
Additional command line options : -6 -V -T "ARTIST=%a" -T "TITLE=%t" -T "ALBUM=%g" -T "DATE=%y" -T "TRACKNUMBER=%n" -T "GENRE=%m" -T "COMMENT=%e" %s -o %d

TOC of the extracted CD

     Track |   Start  |  Length  | Start sector | End sector
    ---------------------------------------------------------
        1  |  0:00.00 |  3:16.20 |         0    |    14719
        2  |  3:16.20 |  5:20.71 |     14720    |    38790
        3  |  8:37.16 |  4:49.65 |     38791    |    60530
        4  | 13:27.06 |  3:25.54 |     60531    |    75959
        5  | 16:52.60 |  3:00.33 |     75960    |    89492
        6  | 19:53.18 |  4:50.57 |     89493    |   111299
        7  | 24:44.00 |  4:37.74 |    111300    |   132148
        8  | 29:21.74 |  5:26.50 |    132149    |   156648
        9  | 34:48.49 |  2:54.30 |    156649    |   169728
       10  | 37:43.04 |  6:32.31 |    169729    |   199159
       11  | 44:15.35 |  4:39.11 |    199160    |   220095
       12  | 48:54.46 |  3:40.40 |    220096    |   236635
       13  | 52:35.11 |  5:04.55 |    236636    |   259490
       14  | 57:39.66 |  4:15.24 |    259491    |   278639
       15  | 61:55.15 |  5:06.22 |    278640    |   301611
       16  | 67:01.37 |  4:20.39 |    301612    |   321150
       17  | 71:22.01 |  4:54.37 |    321151    |   343237

Range status and errors

Selected range

     Filename C:\Mercyful Fate - The Unholy Sounds of the Demon Bells - A Tribute To Mercyful Fate (SDP CD-99102).wav

     Peak level 100.0 %
     Range quality 99.9 %
     Test CRC A47C5377
     Copy CRC A47C5377
     Copy OK

No errors occurred

AccurateRip summary

Track  1  accurately ripped (confidence 3)  [C2076F00]
Track  2  accurately ripped (confidence 3)  [FFD645C0]
Track  3  accurately ripped (confidence 3)  [AFA44FB9]
Track  4  accurately ripped (confidence 3)  [98BA6E27]
Track  5  accurately ripped (confidence 3)  [523C455B]
Track  6  accurately ripped (confidence 3)  [F19B69EC]
Track  7  accurately ripped (confidence 3)  [D80E89D3]
Track  8  accurately ripped (confidence 3)  [359D23AF]
Track  9  accurately ripped (confidence 3)  [899D83BE]
Track 10  accurately ripped (confidence 3)  [92D3C98E]
Track 11  accurately ripped (confidence 3)  [FC74F7E7]
Track 12  accurately ripped (confidence 3)  [35CCA6F0]
Track 13  accurately ripped (confidence 3)  [67B9A720]
Track 14  accurately ripped (confidence 3)  [A965BF25]
Track 15  accurately ripped (confidence 3)  [DBECED9F]
Track 16  accurately ripped (confidence 3)  [E5D13E49]
Track 17  accurately ripped (confidence 3)  [0FFAE5BC]

All tracks accurately ripped

End of status report
Доп. информация: AccurateRip
 
Не забывайте говорить Спасибо. Не уходите с раздачи!   
Торрент: Зарегистрирован [07 окт 2014, 07:51] Для скачивания .torrent
необходима регистрация
Или скачать с помощью
MediaGet
Статус:
Проверен
 
.torrent скачан: 2 раз
Хэш: e5f294a2bfd83ef3b80bea8fe6385a20ed715470
Размер: 587.58 МБ (616 124 563 байт)
Стать Автором раздачи
 
 
Раздал: 6.67 ГБ
Скачал: 302.5 МБ
Ратио: 22.576
Сообщения: 374198
Зарегистрирован: 17 апр 2014, 11:05


  • Похожие торренты
    Ответы
    Просмотры
    Последнее сообщение

Вернуться в Сборники "Зарубежный Metal" (lossless)

Ресурс не предоставляет электронные версии произведений, а занимается лишь коллекционированием и каталогизацией ссылок, присылаемых и публикуемых на форуме нашими читателями. Если вы являетесь правообладателем какого-либо представленного материала и не желаете чтобы ссылка на него находилась в нашем каталоге, свяжитесь с нами и мы незамедлительно удалим её. Файлы для обмена на трекере предоставлены пользователями сайта, и администрация не несёт ответственности за их содержание. Просьба не заливать файлы, защищенные авторскими правами, а также файлы нелегального содержания!
cron