(Grindcore) VA - An International Grindcore Gathering: Illegal Grinding - 2009, FLAC (image+.cue), lossless

 
 Статистика раздачи 
Размер: 272.87 МБ   |  Зарегистрирован: 07 окт 2014, 07:53   |   .torrent скачан: 0 раз
Сидеров: 1  [ 0 байт/сек ]     Личеров: 1  [ 0 байт/сек ]  
  

(Grindcore) VA - An International Grindcore Gathering: Illegal Grinding - 2009, FLAC (image+.cue), lossless

Сообщение Thistoll » 07 окт 2014, 07:53

An International Grindcore Gathering: Illegal Grinding

Жанр: Grindcore
Год издания: 2009
Издатель (лейбл): To Live A Lie & etc.
Страна: Indonesia | USA | Italy | Turkey | Netherlands | Sweden
Аудиокодек: FLAC (*.flac)
Тип рипа: image+.cue
Битрейт аудио: lossless
Продолжительность: 39:53
Источник (релизер): Оригинальный Диск
Наличие сканов в содержимом раздачи: да
Треклист:
01. Bloody Act Of Terror – Bloody Act Of Terror
02. Bloody Act Of Terror – Lets Talk About Nothing
03. Bloody Act Of Terror – Their System Has Stolen My Life
04. Bloody Act Of Terror – Fight Your Wars
05. Bloody Act Of Terror – Shut Up.!!!
06. Goner – Total Fucking Misanthropy
07. Goner – Devoid Of Substance
08. Goner – Japanese Title
09. Goner – Minced Martyr Sauce
10. Haemophagus – Contamination
11. Haemophagus – Rivers Run No More
12. Haemophagus – Grotesque Laceration Of Mortified Flesh [General Surgery cover]
13. Sakatat – Özgür Ol, Yok Ol
14. Sakatat – Elli Yıllık Rüyamız
15. Sakatat – Humanity Of Stupidity [SOB cover]
16. Sakatat – Ulusal Basın
17. Sakatat – Sınırlar Bizi Ayırmaz
18. Sakatat – Game Of Hypocrisy [Rot cover]
19. D-Compose – Bad Side Of Social Existance
20. D-Compose – Kill Yourself Now
21. D-Compose – I'm Not Jesus [Ramones cover]
22. Splattered Mermaids – Female Dermal Body Coat
23. Splattered Mermaids – Torch To Face Reconstruction
24. Splattered Mermaids – Last Wish
25. Splattered Mermaids – Take The Pain
Код: Выделить всё
Exact Audio Copy V1.0 beta 3 from 29. August 2011

EAC extraction logfile from 23. August 2012, 10:59

Various / An International Grindcore Gathering: Illegal Grinding

Used drive  : ASUS    DRW-22B1LT   Adapter: 1  ID: 1

Read mode               : Secure
Utilize accurate stream : Yes
Defeat audio cache      : Yes
Make use of C2 pointers : No

Read offset correction                      : 6
Overread into Lead-In and Lead-Out          : No
Fill up missing offset samples with silence : Yes
Delete leading and trailing silent blocks   : No
Null samples used in CRC calculations       : Yes
Used interface                              : Installed external ASPI interface

Used output format              : User Defined Encoder
Selected bitrate                : 1024 kBit/s
Quality                         : High
Add ID3 tag                     : Yes
Command line compressor         : C:\Program Files (x86)\Exact Audio Copy\Flac\flac.exe
Additional command line options : -8 -V -T "ARTIST=%artist%" -T "TITLE=%title%" -T "ALBUM=%albumtitle%" -T "DATE=%year%" -T "TRACKNUMBER=%tracknr%" -T "GENRE=%genre%" -T "COMMENT=%comment%" -T "BAND=%albuminterpret%" -T "COMPOSER=%composer%" %haslyrics%--tag-from-file=LYRICS="%lyricsfile%"%haslyrics% -T "TOTALTRACKS=%numtracks%" %hascover%--picture="%coverfile%"%hascover% %source% -o %dest%

TOC of the extracted CD

     Track |   Start  |  Length  | Start sector | End sector
    ---------------------------------------------------------
        1  |  0:00.00 |  1:27.50 |         0    |     6574
        2  |  1:27.50 |  1:52.50 |      6575    |    15024
        3  |  3:20.25 |  0:38.50 |     15025    |    17924
        4  |  3:59.00 |  0:21.49 |     17925    |    19548
        5  |  4:20.49 |  1:19.50 |     19549    |    25523
        6  |  5:40.24 |  1:06.49 |     25524    |    30522
        7  |  6:46.73 |  0:47.49 |     30523    |    34096
        8  |  7:34.47 |  0:26.50 |     34097    |    36096
        9  |  8:01.22 |  1:38.49 |     36097    |    43495
       10  |  9:39.71 |  2:26.50 |     43496    |    54495
       11  | 12:06.46 |  3:21.50 |     54496    |    69620
       12  | 15:28.21 |  1:32.49 |     69621    |    76569
       13  | 17:00.70 |  0:29.49 |     76570    |    78793
       14  | 17:30.44 |  0:52.49 |     78794    |    82742
       15  | 18:23.18 |  0:30.50 |     82743    |    85042
       16  | 18:53.68 |  1:06.50 |     85043    |    90042
       17  | 20:00.43 |  0:27.49 |     90043    |    92116
       18  | 20:28.17 |  0:50.49 |     92117    |    95915
       19  | 21:18.66 |  3:06.49 |     95916    |   109914
       20  | 24:25.40 |  4:07.50 |    109915    |   128489
       21  | 28:33.15 |  3:16.50 |    128490    |   143239
       22  | 31:49.65 |  3:00.50 |    143240    |   156789
       23  | 34:50.40 |  2:05.49 |    156790    |   166213
       24  | 36:56.14 |  0:56.49 |    166214    |   170462
       25  | 37:52.63 |  1:59.50 |    170463    |   179437

Range status and errors

Selected range

     Filename H:\_lossless 4 sarge_\V.A. -2009- Illegal Grinding\An International Grindcore Gathering - Illegal Grinding.wav

     Peak level 100.0 %
     Extraction speed 2.7 X
     Range quality 100.0 %
     Test CRC BF0A85E8
     Copy CRC BF0A85E8
     Copy OK

No errors occurred

AccurateRip summary

Track  1  not present in database
Track  2  not present in database
Track  3  not present in database
Track  4  not present in database
Track  5  not present in database
Track  6  not present in database
Track  7  not present in database
Track  8  not present in database
Track  9  not present in database
Track 10  not present in database
Track 11  not present in database
Track 12  not present in database
Track 13  not present in database
Track 14  not present in database
Track 15  not present in database
Track 16  not present in database
Track 17  not present in database
Track 18  not present in database
Track 19  not present in database
Track 20  not present in database
Track 21  not present in database
Track 22  not present in database
Track 23  not present in database
Track 24  not present in database
Track 25  not present in database

None of the tracks are present in the AccurateRip database

End of status report

---- CUETools DB Plugin V2.1.3

[CTDB TOCID: ELrU0.40rEfDMlkzJQAESrorW2E-] disk not present in database, Submit result: ELrU0.40rEfDMlkzJQAESrorW2E- has been uploaded

==== Log checksum 460728C7BB1BF50151E1CDA845ECE3E528E2B2BEDC2BFA75183E2CEA1C7BF636 ====
To Live A Lie (TLAL26)
Teriak Records (Teriak #032)
Bullshit Propaganda (BSP11)
Extreme Terror Production
Jennifer Grind Records (fly 08)
Goregeous Productions (GORE009)
Corrupted Harmony
 
Не забывайте говорить Спасибо. Не уходите с раздачи!   
Торрент: Зарегистрирован [07 окт 2014, 07:53] Для скачивания .torrent
необходима регистрация
Или скачать с помощью
MediaGet
Статус:
Проверен
 
.torrent скачан: 0 раз
Хэш: ee1b75c641578ec829042ac2b37148c5c2c2c1a4
Размер: 272.87 МБ (286 126 639 байт)
Стать Автором раздачи
 
 
Раздал: 6.67 ГБ
Скачал: 302.5 МБ
Ратио: 22.576
Сообщения: 374198
Зарегистрирован: 17 апр 2014, 11:05


  • Похожие торренты
    Ответы
    Просмотры
    Последнее сообщение

Вернуться в Сборники "Зарубежный Metal" (lossless)

Ресурс не предоставляет электронные версии произведений, а занимается лишь коллекционированием и каталогизацией ссылок, присылаемых и публикуемых на форуме нашими читателями. Если вы являетесь правообладателем какого-либо представленного материала и не желаете чтобы ссылка на него находилась в нашем каталоге, свяжитесь с нами и мы незамедлительно удалим её. Файлы для обмена на трекере предоставлены пользователями сайта, и администрация не несёт ответственности за их содержание. Просьба не заливать файлы, защищенные авторскими правами, а также файлы нелегального содержания!
cron