(Martial/Industrial/Ambient/Black Metal) VA - Evola Tribute: The Spirit of Europe (Digipack) - 2009, FLAC (image+.cue), lossless

 
 Статистика раздачи 
Размер: 633.54 МБ   |  Зарегистрирован: 07 окт 2014, 07:53   |   .torrent скачан: 0 раз
Сидеров: 1  [ 0 байт/сек ]     Личеров: 0  [ 0 байт/сек ]  
  

(Martial/Industrial/Ambient/Black Metal) VA - Evola Tribute: The Spirit of Europe (Digipack) - 2009, FLAC (image+.cue), lossless

Сообщение Thistoll » 07 окт 2014, 07:53

Julius Evola

(1898-1974)

Жанр: Martial/Industrial/Ambient/Black Metal || Страна-производитель диска: Poland || Лейбл: Homo Superior & Nija Art
Номер по каталогу: HS 001 / 003 || Страна: International || Год издания: 2009 || Аудиокодек: FLAC (*.flac) || Тип рипа: image+.cue
Битрейт аудио: lossless || Продолжительность: 01:13:19 || Источник (релизер): Original CD || Наличие сканов в содержимом раздачи: да
Треклист:


1 Poland. Morior Axis - The Oil Lamp 01:46
2 Finland. Inhumane Deathcult - Baphomet Rising 03:36
3 Bulgaria. Aryan Art - тадото Наречено Български Народ 05:56
4 Switzerland. Tarihan - Das Heliokratische Manifest 05:21
5 Russia. Misery - Labora, Bella, Ora 05:57
6 Poland. Lord Wind - Hour of Ragnarok 04:06
7 Greece. Faethon - Pagan Eternal 06:33
8 Poland. Korsarz - Stojac na Gruzach Swiata 06:01
9 Germany. Satyayuga - Procreatio I Version II 05:10
10 Switzerland. Menegroth - Mithras Initiation (UR Version) 06:26
11 Spain. Onirica - Furor in Mortem Vertit 06:35
12 France. Profane - La Parole Obscure du Paysage Intérieur 03:25
13 Germany. Von Thronstahl - Respect the Hierarchy (Exclusive Version) 05:13
14 Poland. Project Dedallus - Cykle 07:14
Продолжительность: 01:13:19

Код: Выделить всё
Exact Audio Copy V1.0 beta 3 from 29. August 2011

EAC extraction logfile from 23. July 2013, 1:50

Various Artists / Evola Tribute: The Spirit of Europe (Digipack)

Used drive  : ASUS    DRW-22B2L   b   Adapter: 5  ID: 5

Read mode               : Secure
Utilize accurate stream : Yes
Defeat audio cache      : Yes
Make use of C2 pointers : No

Read offset correction                      : 6
Overread into Lead-In and Lead-Out          : No
Fill up missing offset samples with silence : Yes
Delete leading and trailing silent blocks   : No
Null samples used in CRC calculations       : Yes
Used interface                              : Native Win32 interface for Win NT & 2000

Used output format              : User Defined Encoder
Selected bitrate                : 128 kBit/s
Quality                         : High
Add ID3 tag                     : No
Command line compressor         : C:\Program Files\Exact Audio Copy\Flac\flac.exe
Additional command line options : -V -8 -T "Date=%year%" -T "Genre=%genre%" -T "Composer=%composer%" %source%

TOC of the extracted CD

     Track |   Start  |  Length  | Start sector | End sector
    ---------------------------------------------------------
        1  |  0:00.00 |  1:45.38 |         0    |     7912
        2  |  1:45.38 |  3:36.32 |      7913    |    24144
        3  |  5:21.70 |  5:56.04 |     24145    |    50848
        4  | 11:17.74 |  5:20.62 |     50849    |    74910
        5  | 16:38.61 |  5:56.46 |     74911    |   101656
        6  | 22:35.32 |  4:06.00 |    101657    |   120106
        7  | 26:41.32 |  6:33.10 |    120107    |   149591
        8  | 33:14.42 |  6:00.66 |    149592    |   176657
        9  | 39:15.33 |  5:10.00 |    176658    |   199907
       10  | 44:25.33 |  6:26.00 |    199908    |   228857
       11  | 50:51.33 |  6:34.53 |    228858    |   258460
       12  | 57:26.11 |  3:25.27 |    258461    |   273862
       13  | 60:51.38 |  5:13.00 |    273863    |   297337
       14  | 66:04.38 |  7:13.60 |    297338    |   329872

Range status and errors

Selected range

     Filename C:\1st0m1n\!!! ignore the ''True Metal Forum'' asshole owner - name sathus aka. ligfaerd !!!\Various Artists - Evola Tribute- The Spirit of Europe (Digipack).wav

     Peak level 100.0 %
     Extraction speed 9.5 X
     Range quality 99.9 %
     Test CRC AEF72065
     Copy CRC AEF72065
     Copy OK

No errors occurred

AccurateRip summary

Track  1  not present in database
Track  2  not present in database
Track  3  not present in database
Track  4  not present in database
Track  5  not present in database
Track  6  not present in database
Track  7  not present in database
Track  8  not present in database
Track  9  not present in database
Track 10  not present in database
Track 11  not present in database
Track 12  not present in database
Track 13  not present in database
Track 14  not present in database

None of the tracks are present in the AccurateRip database

End of status report

---- CUETools DB Plugin V2.1.5

[CTDB TOCID: PoAsi90jvo9f04dqz2J89OkXtuU-] disk not present in database
Submit result: PoAsi90jvo9f04dqz2J89OkXtuU- has been uploaded

==== Log checksum 9B8D074B2E35437F216AE789D43EAAFE4CBA8E94E3A3905F6B0038DA92BADA80 ====

Выражаю отдельную благодарность:
Zoretaan за сканы и душевный подгон в виде данного дицке.
blackdrums за проделанную работу над некоторыми сканами.

 
Не забывайте говорить Спасибо. Не уходите с раздачи!   
Торрент: Зарегистрирован [07 окт 2014, 07:53] Для скачивания .torrent
необходима регистрация
Или скачать с помощью
MediaGet
Статус:
Проверен
 
.torrent скачан: 0 раз
Хэш: 08b8cf7d6c0aa3aa7c91c3f21a031c089d160d99
Размер: 633.54 МБ (664 317 016 байт)
Стать Автором раздачи
 
 
Раздал: 6.67 ГБ
Скачал: 302.5 МБ
Ратио: 22.576
Сообщения: 374198
Зарегистрирован: 17 апр 2014, 11:05


  • Похожие торренты
    Ответы
    Просмотры
    Последнее сообщение

Вернуться в Сборники "Зарубежный Metal" (lossless)

Ресурс не предоставляет электронные версии произведений, а занимается лишь коллекционированием и каталогизацией ссылок, присылаемых и публикуемых на форуме нашими читателями. Если вы являетесь правообладателем какого-либо представленного материала и не желаете чтобы ссылка на него находилась в нашем каталоге, свяжитесь с нами и мы незамедлительно удалим её. Файлы для обмена на трекере предоставлены пользователями сайта, и администрация не несёт ответственности за их содержание. Просьба не заливать файлы, защищенные авторскими правами, а также файлы нелегального содержания!
cron