(Metal) VA - The Realm Of Napalm Records Vol. III (Bonus CD) - 2012, FLAC (image+.cue), lossless

 
 Статистика раздачи 
Размер: 582.94 МБ   |  Зарегистрирован: 07 окт 2014, 07:55   |   .torrent скачан: 0 раз
Сидеров: 1  [ 0 байт/сек ]     Личеров: 0  [ 0 байт/сек ]  
  

(Metal) VA - The Realm Of Napalm Records Vol. III (Bonus CD) - 2012, FLAC (image+.cue), lossless

Сообщение Thistoll » 07 окт 2014, 07:55

The Realm Of Napalm Records Vol. III (Bonus CD)

Жанр: Metal
Год издания: 2012
Аудиокодек: FLAC (*.flac)
Тип рипа: image+.cue
Битрейт аудио: lossless
Источник (релизер): rd
Наличие сканов в содержимом раздачи: да
Треклист:
01. MOONSPELL Lickanthrope
02. MONSTER MAGNET Gods and Punks
03. HUNTRESS Spell Eater
04. ALESTORM Death Throes Of The Terrorsquid
05. CANDLEMASS Dancing in the Temple of the Mad Queen Bee
06. SALTATIO MORTIS Eulenspiegel
07. KONTRUST Sock 'n' Doll
08. XANDRIA Valentine
09. NACHTBLUT Eiskonigin
10. ATOMA Rainmen
11. LONEWOLF Army of the Damned
12. GRAVE DIGGER Highland Farewell
13. LEAVES' EYES To France
14. HEIDEVOLK Een nieuw begin
15. DIABULUS IN MUSICA Sceneries of Hope
16. HELLSAW Silence
17. IRON FIRE Taken
18. NEMESEA Afterlife

Дополнительно:
http://www.amazon.com/Realm-Napalm-Records-Vol-Bonus/dp/B007MY7R9E
DVD-часть данного релиза можно найти здесь: http://dwnld.net.ua/viewtopic.php?t=4113494
Код: Выделить всё
Exact Audio Copy V1.0 beta 3 from 29. August 2011

EAC extraction logfile from 26. June 2012, 6:19

Various Artists / The Realm of Napalm Records Vol 3

Used drive  : PLEXTOR DVDR   PX-860A   Adapter: 4  ID: 0

Read mode               : Secure
Utilize accurate stream : Yes
Defeat audio cache      : Yes
Make use of C2 pointers : No

Read offset correction                      : 96
Overread into Lead-In and Lead-Out          : No
Fill up missing offset samples with silence : Yes
Delete leading and trailing silent blocks   : No
Null samples used in CRC calculations       : Yes
Used interface                              : Installed external ASPI interface

Used output format              : User Defined Encoder
Selected bitrate                : 1024 kBit/s
Quality                         : High
Add ID3 tag                     : No
Command line compressor         : C:\Program Files\Exact Audio Copy\FLAC.EXE
Additional command line options : -V -8 -T "Date=%year%" -T "Genre=%genre%" %source%

TOC of the extracted CD

     Track |   Start  |  Length  | Start sector | End sector
    ---------------------------------------------------------
        1  |  0:00.00 |  3:51.03 |         0    |    17327
        2  |  3:51.03 |  5:33.74 |     17328    |    42376
        3  |  9:25.02 |  4:01.12 |     42377    |    60463
        4  | 13:26.14 |  7:48.41 |     60464    |    95604
        5  | 21:14.55 |  3:38.03 |     95605    |   111957
        6  | 24:52.58 |  3:44.16 |    111958    |   128773
        7  | 28:36.74 |  4:11.07 |    128774    |   147605
        8  | 32:48.06 |  4:13.49 |    147606    |   166629
        9  | 37:01.55 |  3:50.39 |    166630    |   183918
       10  | 40:52.19 |  4:50.26 |    183919    |   205694
       11  | 45:42.45 |  4:25.58 |    205695    |   225627
       12  | 50:08.28 |  4:09.45 |    225628    |   244347
       13  | 54:17.73 |  4:39.16 |    244348    |   265288
       14  | 58:57.14 |  3:59.15 |    265289    |   283228
       15  | 62:56.29 |  3:53.04 |    283229    |   300707
       16  | 66:49.33 |  6:58.16 |    300708    |   332073
       17  | 73:47.49 |  3:12.02 |    332074    |   346475

Range status and errors

Selected range

     Filename J:\MUSIC\Various Artists - The Realm of Napalm Records Vol 3.wav

     Peak level 100.0 %
     Extraction speed 7.8 X
     Range quality 100.0 %
     Test CRC FABA087B
     Copy CRC FABA087B
     Copy OK

No errors occurred

AccurateRip summary

Track  1  not present in database
Track  2  not present in database
Track  3  not present in database
Track  4  not present in database
Track  5  not present in database
Track  6  not present in database
Track  7  not present in database
Track  8  not present in database
Track  9  not present in database
Track 10  not present in database
Track 11  not present in database
Track 12  not present in database
Track 13  not present in database
Track 14  not present in database
Track 15  not present in database
Track 16  not present in database
Track 17  not present in database

None of the tracks are present in the AccurateRip database

End of status report

==== Log checksum B0E368382C5242BA14A385047301C9B45F213E58BF0F42C8DE075EE37C1BEBCD ====
Код: Выделить всё
REM GENRE Metal
REM DATE 2012
REM DISCID F6120B11
REM COMMENT "ExactAudioCopy v1.0b3"
PERFORMER "Various Artists"
TITLE "The Realm of Napalm Records Vol 3 "
FILE "Various Artists - The Realm of Napalm Records Vol 3.flac" WAVE
  TRACK 01 AUDIO
    TITLE "1.Moonspell - Lickanthrope"
    PERFORMER "Various Artists"
    ISRC ATN261242502
    FLAGS DCP
    INDEX 01 00:00:00
  TRACK 02 AUDIO
    TITLE "2.Monster Magnet - Gods and Punks"
    PERFORMER "Various Artists"
    ISRC ATN261033604
    FLAGS DCP
    INDEX 00 03:49:03
    INDEX 01 03:51:03
  TRACK 03 AUDIO
    TITLE "3.Huntress - Spell Eater"
    PERFORMER "Various Artists"
    ISRC ATN261240001
    FLAGS DCP
    INDEX 00 09:23:02
    INDEX 01 09:25:02
  TRACK 04 AUDIO
    TITLE "4.Alestorm - Death Throes of the Terrorsquid"
    PERFORMER "Various Artists"
    ISRC ATN261137211
    FLAGS DCP
    INDEX 00 13:24:14
    INDEX 01 13:26:14
  TRACK 05 AUDIO
    TITLE "5.Candlemass - Dancing in the Temple (of the Mad Queen Bee)"
    PERFORMER "Various Artists"
    ISRC ATN261242701
    FLAGS DCP
    INDEX 00 21:12:55
    INDEX 01 21:14:55
  TRACK 06 AUDIO
    TITLE "6.Saltatio Mortis - Eulenspiegel"
    PERFORMER "Various Artists"
    ISRC ATN261138804
    FLAGS DCP
    INDEX 00 24:50:58
    INDEX 01 24:52:58
  TRACK 07 AUDIO
    TITLE "7.Kontrust - Sock 'n' Doll"
    PERFORMER "Various Artists"
    ISRC ATN261242201
    FLAGS DCP
    INDEX 00 28:34:74
    INDEX 01 28:36:74
  TRACK 08 AUDIO
    TITLE "8.Xandria - Valentine"
    PERFORMER "Various Artists"
    ISRC ATN261241702
    FLAGS DCP
    INDEX 00 32:46:06
    INDEX 01 32:48:06
  TRACK 09 AUDIO
    TITLE "9.Nachtblut - Eiskonigin"
    PERFORMER "Various Artists"
    ISRC ATN261243104
    FLAGS DCP
    INDEX 00 36:59:55
    INDEX 01 37:01:55
  TRACK 10 AUDIO
    TITLE "10.Atoma - Rainmen"
    PERFORMER "Various Artists"
    ISRC ATN261240901
    FLAGS DCP
    INDEX 00 40:50:19
    INDEX 01 40:52:19
  TRACK 11 AUDIO
    TITLE "11.Lonewolf - Army of the Damned"
    PERFORMER "Various Artists"
    ISRC ATN261241903
    FLAGS DCP
    INDEX 00 45:40:45
    INDEX 01 45:42:45
  TRACK 12 AUDIO
    TITLE "12.Grave Digger - Highland Farewell"
    PERFORMER "Various Artists"
    ISRC ATN261034904
    FLAGS DCP
    INDEX 00 50:06:28
    INDEX 01 50:08:28
  TRACK 13 AUDIO
    TITLE "13.Leaves' Eyes - To France"
    PERFORMER "Various Artists"
    ISRC ATN261137505
    FLAGS DCP
    INDEX 00 54:15:73
    INDEX 01 54:17:73
  TRACK 14 AUDIO
    TITLE "14.Heidevolk - Een Nieuw Begin"
    PERFORMER "Various Artists"
    ISRC ATN261241101
    FLAGS DCP
    INDEX 00 58:55:14
    INDEX 01 58:57:14
  TRACK 15 AUDIO
    TITLE "15.Diabulus In Musica - Sceneries of Hope"
    PERFORMER "Various Artists"
    ISRC ATN261241503
    FLAGS DCP
    INDEX 00 62:54:29
    INDEX 01 62:56:29
  TRACK 16 AUDIO
    TITLE "16.Hellsaw - Silence"
    PERFORMER "Various Artists"
    ISRC ATN261241309
    FLAGS DCP
    INDEX 00 66:47:33
    INDEX 01 66:49:33
  TRACK 17 AUDIO
    TITLE "17.Nemesea - Afterlife"
    PERFORMER "Various Artists"
    ISRC ATN261138503
    FLAGS DCP
    INDEX 00 73:45:49
    INDEX 01 73:47:49


Download
Скачать .torrent файл
  ·  
Сайт не распространяет и не хранит электронные версии произведений, а лишь предоставляет доступ к создаваемому пользователями каталогу ссылок на торрент-файлы, которые содержат только списки хеш-сумм
 
Igor_O25
 
Не забывайте говорить Спасибо. Не уходите с раздачи!   
Торрент: Зарегистрирован [07 окт 2014, 07:55] Для скачивания .torrent
необходима регистрация
Или скачать с помощью
MediaGet
Статус:
Проверен
 
.torrent скачан: 0 раз
Хэш: 2669260fe88e4d2c2388d89c563af3caa7743713
Размер: 582.94 МБ (611 259 773 байт)
Стать Автором раздачи
 
 
Раздал: 6.67 ГБ
Скачал: 302.5 МБ
Ратио: 22.576
Сообщения: 374198
Зарегистрирован: 17 апр 2014, 11:05


  • Похожие торренты
    Ответы
    Просмотры
    Последнее сообщение

Вернуться в Сборники "Зарубежный Metal" (lossless)

Ресурс не предоставляет электронные версии произведений, а занимается лишь коллекционированием и каталогизацией ссылок, присылаемых и публикуемых на форуме нашими читателями. Если вы являетесь правообладателем какого-либо представленного материала и не желаете чтобы ссылка на него находилась в нашем каталоге, свяжитесь с нами и мы незамедлительно удалим её. Файлы для обмена на трекере предоставлены пользователями сайта, и администрация не несёт ответственности за их содержание. Просьба не заливать файлы, защищенные авторскими правами, а также файлы нелегального содержания!
cron