[Евгений Попов] Обучающий видеокурс «Переустановка Windows» [2014, RUS]

 
 Статистика раздачи 
Размер: 249.26 МБ   |  Зарегистрирован: 27 ноя 2014, 21:40   |   .torrent скачан: 3 раз
Сидеров: 1  [ 0 байт/сек ]     Личеров: 0  [ 0 байт/сек ]  
  

[Евгений Попов] Обучающий видеокурс «Переустановка Windows» [2014, RUS]

Сообщение BitFire » 27 ноя 2014, 21:40

Обучающий видеокурс - «Переустановка Windows» [2014, RUS]

Год выпуска: 2014
Производитель: Евгений Попов
Сайт производителя: http://evgeniypopov.com
Автор: Евгений Попов
Продолжительность: 03:30:00
Тип раздаваемого материала: Видеоурок
Язык: Русский

Описание:
После выхода в свет курса «Резервное копирование по методу Евгения Попова» некоторые клиенты начали писать автору о том, что было бы здорово, если бы он записал уроки на тему переустановки Windows. Ведь делать слепок системы лучше всего в момент, когда система только что установлена и настроена.

Доп. информация:
Для просмотра курса запустите файл index.html
Урок 1. Подготовка и начало установки Windows 8.1
Урок 2. Установка
Урок 3. Установка драйверов
Урок 4. Установка браузеров
Урок 5. Программа для хранения паролей
Урок 6. Программа для автоматической смены раскладки
Урок 7. Архиватор
Урок 8. Файловый менеджер
Урок 9. Решения от Adobe
Урок 10. Программа для просмотра изображений
Урок 11. Универсальная база данных Evernote
Урок 12. FTP-клиент
Урок 13. Офис
Урок 14. Skype(дополнительные уроки по Skype)
Урок 15. Кодеки и видеопроигрыватель
Урок 16. Программа для создания скриншотов
Урок 17. Программа для создания интеллект-карт
Урок 18. Текстовый редактор
Урок 19. Программа для работы с PDF и DjVu документами
Урок 20. Программа для очистки системы и работы с автозагрузкой
Урок 21. Локальный сервер OpenServer
Урок 22. Облачное хранилище
Урок 23. Ускорение работы
Урок 24. Советы по резервному копированию
Файлы примеров: присутствуют
Формат видео: MP4
Видео: AVC, 1280x720 (16:9), 10.000 fps, 221 kbps
Аудио: AAC, 44.1 kHz, 2 ch, 128 kbps
General
Complete name : D:\Видео\DVD-курсы\Евгений Попов - Переустановка Windows [2014, RUS]\rs\video\16.mp4
Format : MPEG-4
Format profile : Base Media / Version 2
Codec ID : mp42
File size : 7.15 MiB
Duration : 3mn 27s
Overall bit rate : 290 Kbps
Movie name : 3
Encoded date : UTC 2014-09-16 09:13:39
Tagged date : UTC 2014-09-16 09:13:39

Video
ID : 1
Format : AVC
Format/Info : Advanced Video Codec
Format profile : [email protected]
Format settings, CABAC : No
Format settings, ReFrames : 3 frames
Format settings, GOP : M=1, N=50
Codec ID : avc1
Codec ID/Info : Advanced Video Coding
Duration : 3mn 27s
Bit rate mode : Variable
Bit rate : 194 Kbps
Width : 1 280 pixels
Height : 720 pixels
Display aspect ratio : 16:9
Frame rate mode : Constant
Frame rate : 10.000 fps
Color space : YUV
Chroma subsampling : 4:2:0
Bit depth : 8 bits
Scan type : Progressive
Bits/(Pixel*Frame) : 0.021
Stream size : 4.80 MiB (67%)
Language : English
Encoded date : UTC 2014-09-16 09:13:39
Tagged date : UTC 2014-09-16 09:13:39

Audio
ID : 2
Format : AAC
Format/Info : Advanced Audio Codec
Format profile : LC
Codec ID : 40
Duration : 3mn 27s
Bit rate mode : Variable
Bit rate : 93.6 Kbps
Maximum bit rate : 125 Kbps
Channel(s) : 2 channels
Channel positions : Front: L R
Sampling rate : 44.1 KHz
Compression mode : Lossy
Stream size : 2.31 MiB (32%)
Language : English
Encoded date : UTC 2014-09-16 09:13:39
Tagged date : UTC 2014-09-16 09:13:39
 
Не забывайте говорить Спасибо. Не уходите с раздачи!   
Торрент: Зарегистрирован [27 ноя 2014, 21:40] Для скачивания .torrent
необходима регистрация
Или скачать с помощью
MediaGet
Статус:
Проверен
 
.torrent скачан: 3 раз
Хэш: c20f0f1ae57c0e7f9f0cf3dfdb6a63b636c3e0c8
Размер: 249.26 МБ (261 371 751 байт)
Стать Автором раздачи
 
 
Раздал: 398.6 ГБ
Скачал: 172 МБ
Ратио: 2373.085
Сообщения: 228130
Зарегистрирован: 17 апр 2014, 15:26


  • Похожие торренты
    Ответы
    Просмотры
    Последнее сообщение

Вернуться в Разное (Компьютерные видеоуроки)

Ресурс не предоставляет электронные версии произведений, а занимается лишь коллекционированием и каталогизацией ссылок, присылаемых и публикуемых на форуме нашими читателями. Если вы являетесь правообладателем какого-либо представленного материала и не желаете чтобы ссылка на него находилась в нашем каталоге, свяжитесь с нами и мы незамедлительно удалим её. Файлы для обмена на трекере предоставлены пользователями сайта, и администрация не несёт ответственности за их содержание. Просьба не заливать файлы, защищенные авторскими правами, а также файлы нелегального содержания!
cron