[Александр Борисов] Обучающий видеокурс «Вся Правда о заработке на Блогах» [2014, RUS]

 
 Статистика раздачи 
Размер: 848.97 МБ   |  Зарегистрирован: 10 дек 2014, 00:04   |   .torrent скачан: 2 раз
Сидеров: 1  [ 0 байт/сек ]     Личеров: 1  [ 0 байт/сек ]  
  

[Александр Борисов] Обучающий видеокурс «Вся Правда о заработке на Блогах» [2014, RUS]

Сообщение Thelver1947 » 10 дек 2014, 00:04

Обучающий видеокурс «Вся Правда о заработке на Блогах»

Год выпуска: 2014
Производитель: Александр Борисов
Сайт производителя: http://1000-k.ru/op/2455
Автор: Александр Борисов
Продолжительность: 02:45:37
Тип раздаваемого материала: Мультимедийный диск
Язык: Русский

Описание:
Обучающий видеокурс по заработку на блоге. Из него вы узнаете сколько реально сегодня может зарабатывать человек на своем собственном блоге. В курсе показана схема заработка, благодаря которой автор вышел на доход более 40 000 рублей в месяц.

Доп. информация::
Для просмотра курса запустите файл autorun.exe
1. ВведениеПриветствие
Мои доходы с блога
Зомби-боггеры - кто они?
[*]Правильный путь к заработкам2. ЗаработокВсе основные способы заработка
Заработок на контекстной рекламе
Заработок на продаже баннеров (тизеры)
Заработок на партнерских программах
Заработок на продаже ссылок
Заработок на продаже объявлений в Nolix
[*]Дополнительные способы заработка3. ЗаключениеМоя схема заработка на блоге
[*]Полезные советы
Файлы примеров: присутствуют
Формат видео: MP4
Видео: AVC, 1280x720 (16:9), 30.000 fps, 99.5 kbps
Аудио: AAC, 44.1 kHz, 2 ch, 128 kbps
General
Complete name : D:\Курсы\Александр Борисов - Вся правда о заработке на блогах [2014, RUS]\AutoPlay\Videos\links.mp4
Format : MPEG-4
Format profile : Base Media / Version 2
Codec ID : mp42
File size : 26.0 MiB
Duration : 12mn 51s
Overall bit rate : 283 Kbps
Movie name : Ссылки
Encoded date : UTC 2014-06-01 20:42:29
Tagged date : UTC 2014-06-01 20:44:44
Writing application : HandBrake 0.9.9 2013052900

Video
ID : 1
Format : AVC
Format/Info : Advanced Video Codec
Format profile : [email protected]
Format settings, CABAC : Yes
Format settings, ReFrames : 4 frames
Codec ID : avc1
Codec ID/Info : Advanced Video Coding
Duration : 12mn 51s
Bit rate mode : Variable
Bit rate : 146 Kbps
Width : 1 280 pixels
Height : 720 pixels
Display aspect ratio : 16:9
Frame rate mode : Variable
Frame rate : 30.000 fps
Minimum frame rate : 30.000 fps
Maximum frame rate : 30.030 fps
Color space : YUV
Chroma subsampling : 4:2:0
Bit depth : 8 bits
Scan type : Progressive
Bits/(Pixel*Frame) : 0.005
Stream size : 13.4 MiB (52%)
Writing library : x264 core 130 r2273 b3065e6
Encoding settings : cabac=1 / ref=1 / deblock=1:0:0 / analyse=0x1:0x111 / me=hex / subme=2 / psy=1 / psy_rd=1.00:0.00 / mixed_ref=0 / me_range=16 / chroma_me=1 / trellis=0 / 8x8dct=0 / cqm=0 / deadzone=21,11 / fast_pskip=1 / chroma_qp_offset=0 / threads=6 / lookahead_threads=2 / sliced_threads=0 / nr=0 / decimate=1 / interlaced=0 / bluray_compat=0 / constrained_intra=0 / bframes=3 / b_pyramid=2 / b_adapt=1 / b_bias=0 / direct=1 / weightb=1 / open_gop=0 / weightp=1 / keyint=300 / keyint_min=30 / scenecut=40 / intra_refresh=0 / rc_lookahead=10 / rc=crf / mbtree=1 / crf=23.0 / qcomp=0.60 / qpmin=0 / qpmax=69 / qpstep=4 / vbv_maxrate=20000 / vbv_bufsize=25000 / crf_max=0.0 / nal_hrd=none / ip_ratio=1.40 / aq=1:1.00
Encoded date : UTC 2014-06-01 20:42:29
Tagged date : UTC 2014-06-01 20:44:44
Color primaries : BT.709-5, BT.1361, IEC 61966-2-4, SMPTE RP177
Transfer characteristics : BT.709-5, BT.1361
Matrix coefficients : BT.709-5, BT.1361, IEC 61966-2-4 709, SMPTE RP177

Audio
ID : 2
Format : AAC
Format/Info : Advanced Audio Codec
Format profile : LC
Codec ID : 40
Duration : 12mn 51s
Bit rate mode : Variable
Bit rate : 132.3 Kbps
Maximum bit rate : 212 Kbps
Channel(s) : 2 channels
Channel positions : Front: L R
Sampling rate : 44.1 KHz
Compression mode : Lossy
Stream size : 12.2 MiB (47%)
Language : English
Encoded date : UTC 2014-06-01 20:42:29
Tagged date : UTC 2014-06-01 20:44:43
 
Не забывайте говорить Спасибо. Не уходите с раздачи!   
Торрент: Зарегистрирован [10 дек 2014, 00:04] Для скачивания .torrent
необходима регистрация
Или скачать с помощью
MediaGet
Статус:
Проверен
 
.torrent скачан: 2 раз
Хэш: c13b0c68bdc1380dd271d8ea2a4614f2243f75f5
Размер: 848.97 МБ (890 208 955 байт)
Стать Автором раздачи
 
 
Раздал: 690.52 МБ
Скачал: 0 байт
Ратио: Seed.
Сообщения: 218210
Зарегистрирован: 14 июн 2014, 21:11


  • Похожие торренты
    Ответы
    Просмотры
    Последнее сообщение

Вернуться в Разное (Компьютерные видеоуроки)

Ресурс не предоставляет электронные версии произведений, а занимается лишь коллекционированием и каталогизацией ссылок, присылаемых и публикуемых на форуме нашими читателями. Если вы являетесь правообладателем какого-либо представленного материала и не желаете чтобы ссылка на него находилась в нашем каталоге, свяжитесь с нами и мы незамедлительно удалим её. Файлы для обмена на трекере предоставлены пользователями сайта, и администрация не несёт ответственности за их содержание. Просьба не заливать файлы, защищенные авторскими правами, а также файлы нелегального содержания!
cron