(Doom/Gothic Metal) [CD] VA - Twenty Years In Tears: A Tribute To Lake Of Tears. Part I & II - [2012, 2014] FLAC (tracks+.cue), lossless

 
 Статистика раздачи 
Размер: 1.66 ГБ   |  Зарегистрирован: 22 дек 2014, 19:53   |   .torrent скачан: 1 раз
Сидеров: 1  [ 0 байт/сек ]     Личеров: 0  [ 0 байт/сек ]  
  

(Doom/Gothic Metal) [CD] VA - Twenty Years In Tears: A Tribute To Lake Of Tears. Part I & II - [2012, 2014] FLAC (tracks+.cue), lossless

Сообщение bagouser » 22 дек 2014, 19:53

Twenty Years In Tears: A Tribute To Lake Of Tears. Part I & II


Жанр: Doom/Gothic Metal
Страна-производитель диска (релиза): Россия
Год издания: 2012, 2014
Аудиокодек: FLAC
Тип рипа: tracks+.cue
Битрейт аудио: lossless
Продолжительность: 03:49:39
Источник (релизер): Собственные диски
Наличие сканов в содержимом раздачи: да


Twenty Years In Tears: A Tribute To Lake Of Tears
Издатель (лейбл): Metal Renaissance\Fono Ltd.
Номер по каталогу: MR12-08-1\FO927-1CD

01. Atra Hora - Under The Crescent (03:37)
02. Sacratus - Upon The Highest Mountain (07:09)
03. Grobut Neerg - As Daylight Yield (03:42)
04. Adfail - Evil Inside (03:36)
05. Algarond - Tears (06:07)
06. Mental Home - RavenLand (03:39)
07. Tectum - Dreamdemons (05:09)
08. Hexentraum - Headstones (04:23)
09. Zerokarma - Burn Fire Burn (03:30)
10. Dominia - The Path Of The Gods (10:48)
11. Satanation - Cosmic Weed (03:17)
12. Tartharia - Devil's Diner (03:23)
Код: Выделить всё
Exact Audio Copy V1.0 beta 3 from 29. August 2011

EAC extraction logfile from 24. September 2014, 13:40

Various Artists / Twenty Years In Tears: A Tribute To Lake Of Tears

Used drive  : HL-DT-STDVD-RAM GSA-H22N   Adapter: 4  ID: 0

Read mode               : Secure
Utilize accurate stream : Yes
Defeat audio cache      : Yes
Make use of C2 pointers : No

Read offset correction                      : 102
Overread into Lead-In and Lead-Out          : No
Fill up missing offset samples with silence : Yes
Delete leading and trailing silent blocks   : No
Null samples used in CRC calculations       : Yes
Used interface                              : Native Win32 interface for Win NT & 2000
Gap handling                                : Appended to previous track

Used output format              : User Defined Encoder
Selected bitrate                : 128 kBit/s
Quality                         : High
Add ID3 tag                     : No
Command line compressor         : C:\Program Files (x86)\Exact Audio Copy\Flac\flac.exe
Additional command line options : -8 -V -T "ARTIST=%artist%" -T "TITLE=%title%" -T "ALBUM=%albumtitle%" -T "DATE=%year%" -T "TRACKNUMBER=%tracknr%" -T "GENRE=%genre%" -T "PERFORMER=%albuminterpret%" -T "COMPOSER=%composer%" %haslyrics%--tag-from-file=LYRICS="%lyricsfile%"%haslyrics% -T "ALBUMARTIST=%albumartist%" -T "DISCNUMBER=%cdnumber%" -T "TOTALDISCS=%totalcds%" -T "TOTALTRACKS=%numtracks%" -T "COMMENT=%comment%" %source% -o %dest%

TOC of the extracted CD

     Track |   Start  |  Length  | Start sector | End sector
    ---------------------------------------------------------
        1  |  0:00.00 |  3:37.00 |         0    |    16274
        2  |  3:37.00 |  7:09.08 |     16275    |    48457
        3  | 10:46.08 |  3:42.01 |     48458    |    65108
        4  | 14:28.09 |  3:36.09 |     65109    |    81317
        5  | 18:04.18 |  6:06.56 |     81318    |   108823
        6  | 24:10.74 |  3:39.00 |    108824    |   125248
        7  | 27:49.74 |  5:08.46 |    125249    |   148394
        8  | 32:58.45 |  4:23.28 |    148395    |   168147
        9  | 37:21.73 |  3:29.72 |    168148    |   183894
       10  | 40:51.70 | 10:48.02 |    183895    |   232496
       11  | 51:39.72 |  3:17.18 |    232497    |   247289
       12  | 54:57.15 |  3:23.09 |    247290    |   262523

Track  1

     Filename C:\Users\Zelgadiss Graywords\Music\Сборники\2012 - Twenty Years In Tears - A Tribute To Lake Of Tears\CD#1\01 - Atra Hora - Under The Crescent.wav

     Pre-gap length  0:00:02.00

     Peak level 100.0 %
     Extraction speed 1.5 X
     Track quality 100.0 %
     Test CRC F395CC48
     Copy CRC F395CC48
     Accurately ripped (confidence 1)  [882D92F2]  (AR v2)
     Copy OK

Track  2

     Filename C:\Users\Zelgadiss Graywords\Music\Сборники\2012 - Twenty Years In Tears - A Tribute To Lake Of Tears\CD#1\02 - Sacratus - Upon The Highest Mountain.wav

     Peak level 100.0 %
     Extraction speed 1.9 X
     Track quality 100.0 %
     Test CRC 519AFB1B
     Copy CRC 519AFB1B
     Accurately ripped (confidence 1)  [CC603678]  (AR v2)
     Copy OK

Track  3

     Filename C:\Users\Zelgadiss Graywords\Music\Сборники\2012 - Twenty Years In Tears - A Tribute To Lake Of Tears\CD#1\03 - Grobut Neerg - As Daylight Yield.wav

     Peak level 95.5 %
     Extraction speed 2.0 X
     Track quality 100.0 %
     Test CRC 53F72FCF
     Copy CRC 53F72FCF
     Accurately ripped (confidence 1)  [BE13EC6B]  (AR v2)
     Copy OK

Track  4

     Filename C:\Users\Zelgadiss Graywords\Music\Сборники\2012 - Twenty Years In Tears - A Tribute To Lake Of Tears\CD#1\04 - Adfail - Evil Inside.wav

     Peak level 100.0 %
     Extraction speed 1.8 X
     Track quality 99.9 %
     Test CRC C7D53E56
     Copy CRC C7D53E56
     Accurately ripped (confidence 1)  [6AE1A42D]  (AR v2)
     Copy OK

Track  5

     Filename C:\Users\Zelgadiss Graywords\Music\Сборники\2012 - Twenty Years In Tears - A Tribute To Lake Of Tears\CD#1\05 - Algarond - Tears.wav

     Peak level 96.9 %
     Extraction speed 2.4 X
     Track quality 100.0 %
     Test CRC 4CFF7901
     Copy CRC 4CFF7901
     Accurately ripped (confidence 1)  [8D94D1DC]  (AR v2)
     Copy OK

Track  6

     Filename C:\Users\Zelgadiss Graywords\Music\Сборники\2012 - Twenty Years In Tears - A Tribute To Lake Of Tears\CD#1\06 - Mental Home - RavenLand.wav

     Peak level 97.4 %
     Extraction speed 2.4 X
     Track quality 100.0 %
     Test CRC 0F9C7C31
     Copy CRC 0F9C7C31
     Accurately ripped (confidence 1)  [4F5E5DC1]  (AR v2)
     Copy OK

Track  7

     Filename C:\Users\Zelgadiss Graywords\Music\Сборники\2012 - Twenty Years In Tears - A Tribute To Lake Of Tears\CD#1\07 - Tectum - Dreamdemons.wav

     Peak level 100.0 %
     Extraction speed 2.6 X
     Track quality 100.0 %
     Test CRC EAC1A814
     Copy CRC EAC1A814
     Accurately ripped (confidence 1)  [BFC27425]  (AR v2)
     Copy OK

Track  8

     Filename C:\Users\Zelgadiss Graywords\Music\Сборники\2012 - Twenty Years In Tears - A Tribute To Lake Of Tears\CD#1\08 - Hexentraum - Headstones.wav

     Peak level 98.0 %
     Extraction speed 2.7 X
     Track quality 100.0 %
     Test CRC 7B0ADF6B
     Copy CRC 7B0ADF6B
     Accurately ripped (confidence 1)  [3721A25C]  (AR v2)
     Copy OK

Track  9

     Filename C:\Users\Zelgadiss Graywords\Music\Сборники\2012 - Twenty Years In Tears - A Tribute To Lake Of Tears\CD#1\09 - Zerokarma - Burn Fire Burn.wav

     Peak level 94.7 %
     Extraction speed 2.7 X
     Track quality 100.0 %
     Test CRC F6F3C671
     Copy CRC F6F3C671
     Accurately ripped (confidence 1)  [8A2ABC92]  (AR v2)
     Copy OK

Track 10

     Filename C:\Users\Zelgadiss Graywords\Music\Сборники\2012 - Twenty Years In Tears - A Tribute To Lake Of Tears\CD#1\10 - Dominia - The Path Of The Gods.wav

     Peak level 100.0 %
     Extraction speed 3.1 X
     Track quality 99.9 %
     Test CRC E8E6573C
     Copy CRC E8E6573C
     Accurately ripped (confidence 1)  [5A56B506]  (AR v2)
     Copy OK

Track 11

     Filename C:\Users\Zelgadiss Graywords\Music\Сборники\2012 - Twenty Years In Tears - A Tribute To Lake Of Tears\CD#1\11 - Satanation - Cosmic Weed.wav

     Peak level 100.0 %
     Extraction speed 3.0 X
     Track quality 100.0 %
     Test CRC 053609E1
     Copy CRC 053609E1
     Accurately ripped (confidence 1)  [F36D8189]  (AR v2)
     Copy OK

Track 12

     Filename C:\Users\Zelgadiss Graywords\Music\Сборники\2012 - Twenty Years In Tears - A Tribute To Lake Of Tears\CD#1\12 - Tartharia - Devil's Diner.wav

     Peak level 100.0 %
     Extraction speed 3.1 X
     Track quality 100.0 %
     Test CRC DF8C0CCD
     Copy CRC DF8C0CCD
     Accurately ripped (confidence 1)  [6A501E65]  (AR v2)
     Copy OK

All tracks accurately ripped

No errors occurred

End of status report

---- CUETools DB Plugin V2.1.3

[CTDB TOCID: MTBsx7wnJY_jwpAmVGABgA9eaIM-] disk not present in database, Submit result: MTBsx7wnJY_jwpAmVGABgA9eaIM- has been uploaded

==== Log checksum 2B44772DEEED403883A8393F6DC49D4C2FB817E038CDCCB3AA52C9A3FCD5CF12 ====
Код: Выделить всё
REM GENRE "Doom\Gothic Metal"
REM DATE 2012
REM DISCID A00DAC0C
REM COMMENT "ExactAudioCopy v1.0b3"
PERFORMER "Various Artists"
TITLE "Twenty Years In Tears: A Tribute To Lake Of Tears"
FILE "01 - Atra Hora - Under The Crescent.wav" WAVE
  TRACK 01 AUDIO
    TITLE "Under The Crescent"
    PERFORMER "Atra Hora"
    FLAGS DCP
    INDEX 01 00:00:00
FILE "02 - Sacratus - Upon The Highest Mountain.wav" WAVE
  TRACK 02 AUDIO
    TITLE "Upon The Highest Mountain"
    PERFORMER "Sacratus"
    FLAGS DCP
    INDEX 01 00:00:00
FILE "03 - Grobut Neerg - As Daylight Yield.wav" WAVE
  TRACK 03 AUDIO
    TITLE "As Daylight Yield"
    PERFORMER "Grobut Neerg"
    FLAGS DCP
    INDEX 01 00:00:00
FILE "04 - Adfail - Evil Inside.wav" WAVE
  TRACK 04 AUDIO
    TITLE "Evil Inside"
    PERFORMER "Adfail"
    FLAGS DCP
    INDEX 01 00:00:00
FILE "05 - Algarond - Tears.wav" WAVE
  TRACK 05 AUDIO
    TITLE "Tears"
    PERFORMER "Algarond"
    FLAGS DCP
    INDEX 01 00:00:00
FILE "06 - Mental Home - RavenLand.wav" WAVE
  TRACK 06 AUDIO
    TITLE "RavenLand"
    PERFORMER "Mental Home"
    FLAGS DCP
    INDEX 01 00:00:00
FILE "07 - Tectum - Dreamdemons.wav" WAVE
  TRACK 07 AUDIO
    TITLE "Dreamdemons"
    PERFORMER "Tectum"
    FLAGS DCP
    INDEX 01 00:00:00
FILE "08 - Hexentraum - Headstones.wav" WAVE
  TRACK 08 AUDIO
    TITLE "Headstones"
    PERFORMER "Hexentraum"
    FLAGS DCP
    INDEX 01 00:00:00
FILE "09 - Zerokarma - Burn Fire Burn.wav" WAVE
  TRACK 09 AUDIO
    TITLE "Burn Fire Burn"
    PERFORMER "Zerokarma"
    FLAGS DCP
    INDEX 01 00:00:00
FILE "10 - Dominia - The Path Of The Gods.wav" WAVE
  TRACK 10 AUDIO
    TITLE "The Path Of The Gods"
    PERFORMER "Dominia"
    FLAGS DCP
    INDEX 01 00:00:00
FILE "11 - Satanation - Cosmic Weed.wav" WAVE
  TRACK 11 AUDIO
    TITLE "Cosmic Weed"
    PERFORMER "Satanation"
    FLAGS DCP
    INDEX 01 00:00:00
FILE "12 - Tartharia - Devil's Diner.wav" WAVE
  TRACK 12 AUDIO
    TITLE "Devil's Diner"
    PERFORMER "Tartharia"
    FLAGS DCP
    INDEX 01 00:00:00
Издатель (лейбл): Metal Renaissance\Fono Ltd.
Номер по каталогу: MR12-08-2\FO927-2CD

01. Awake In Shades - The Four Strings Of Mourning (05:33)
02. Algarond - Raistling And The Rose (05:22)
03. Shadowgarden - Hold On Tight (03:50)
04. Inside You - Forever Autumn (05:48)
05. Draconian - Demon You/Lily Anne (04:27)
06. Путь Солнца - Return Of Ravens (03:13)
07. The Equinox Ov The Gods - Let Us Go As They Do (03:56)
08. The Mary Major - The Greymen (04:06)
09. Xicon - Dystopia (03:16)
10. Handful Of Stars - Sister Sinister (03:53)
11. Egonaut - Children Of The Grey (03:39)
12. The Equinox Ov The Gods - Planet Of The Penguins (06:13)
13. Egonaut - Floating In Darkness (03:32)
14. Type V Blood - Burn Fire Burn (Bonus Track) (04:49)
Код: Выделить всё
Exact Audio Copy V1.0 beta 4 from 7. December 2014

EAC extraction logfile from 22. December 2014, 12:14

Various Artists / Twenty Years In Tears: A Tribute To Lake Of Tears

Used drive  : HL-DT-STDVD-RAM GSA-H22N   Adapter: 6  ID: 0

Read mode               : Secure
Utilize accurate stream : Yes
Defeat audio cache      : Yes
Make use of C2 pointers : No

Read offset correction                      : 102
Overread into Lead-In and Lead-Out          : No
Fill up missing offset samples with silence : Yes
Delete leading and trailing silent blocks   : No
Null samples used in CRC calculations       : Yes
Used interface                              : Installed external ASPI interface
Gap handling                                : Appended to previous track

Used output format              : User Defined Encoder
Selected bitrate                : 1024 kBit/s
Quality                         : High
Add ID3 tag                     : No
Command line compressor         : C:\Program Files (x86)\Exact Audio Copy\flac\flac.exe
Additional command line options : -8 -V -T "ARTIST=%artist%" -T "TITLE=%title%" -T "ALBUM=%albumtitle%" -T "DATE=%year%" -T "TRACKNUMBER=%tracknr%" -T "GENRE=%genre%" -T "PERFORMER=%albuminterpret%" -T "COMPOSER=%composer%" %haslyrics%--tag-from-file=LYRICS="%lyricsfile%"%haslyrics% -T "ALBUMARTIST=%albumartist%" -T "DISCNUMBER=%cdnumber%" -T "DISCTOTAL=%totalcds%" -T "TRACKTOTAL=%numtracks%" -T "COMMENT=%comment%" %source% -o %dest%

TOC of the extracted CD

     Track |   Start  |  Length  | Start sector | End sector
    ---------------------------------------------------------
        1  |  0:00.00 |  5:33.18 |         0    |    24992
        2  |  5:33.18 |  5:21.65 |     24993    |    49132
        3  | 10:55.08 |  3:50.30 |     49133    |    66412
        4  | 14:45.38 |  5:48.35 |     66413    |    92547
        5  | 20:33.73 |  4:27.00 |     92548    |   112572
        6  | 25:00.73 |  3:13.37 |    112573    |   127084
        7  | 28:14.35 |  3:55.56 |    127085    |   144765
        8  | 32:10.16 |  4:06.16 |    144766    |   163231
        9  | 36:16.32 |  3:15.61 |    163232    |   177917
       10  | 39:32.18 |  3:53.34 |    177918    |   195426
       11  | 43:25.52 |  3:39.18 |    195427    |   211869
       12  | 47:04.70 |  6:13.00 |    211870    |   239844
       13  | 53:17.70 |  3:32.28 |    239845    |   255772
       14  | 56:50.23 |  4:48.45 |    255773    |   277417

Track  1

     Filename C:\Users\Zelgadiss Graywords\Music\Сборники\2012 - Twenty Years In Tears - A Tribute To Lake Of Tears\CD#2\01 - Awake In Shades - The Four Strings Of Mourning.wav

     Pre-gap length  0:00:02.00

     Peak level 99.8 %
     Extraction speed 1.6 X
     Track quality 100.0 %
     Test CRC 1E48B180
     Copy CRC 1E48B180
     Accurately ripped (confidence 1)  [17E2D6EC]  (AR v2)
     Copy OK

Track  2

     Filename C:\Users\Zelgadiss Graywords\Music\Сборники\2012 - Twenty Years In Tears - A Tribute To Lake Of Tears\CD#2\02 - Algarond - Raistling And The Rose.wav

     Peak level 100.0 %
     Extraction speed 1.9 X
     Track quality 100.0 %
     Test CRC A3E6372F
     Copy CRC A3E6372F
     Accurately ripped (confidence 1)  [8B92FA0A]  (AR v2)
     Copy OK

Track  3

     Filename C:\Users\Zelgadiss Graywords\Music\Сборники\2012 - Twenty Years In Tears - A Tribute To Lake Of Tears\CD#2\03 - Shadowgarden - Hold On Tight.wav

     Peak level 100.0 %
     Extraction speed 1.8 X
     Track quality 99.9 %
     Test CRC ECA5610B
     Copy CRC ECA5610B
     Accurately ripped (confidence 1)  [8F4494D6]  (AR v2)
     Copy OK

Track  4

     Filename C:\Users\Zelgadiss Graywords\Music\Сборники\2012 - Twenty Years In Tears - A Tribute To Lake Of Tears\CD#2\04 - Inside You - Forever Autumn.wav

     Peak level 100.0 %
     Extraction speed 2.3 X
     Track quality 100.0 %
     Test CRC A80139B3
     Copy CRC A80139B3
     Accurately ripped (confidence 1)  [B77E0A14]  (AR v2)
     Copy OK

Track  5

     Filename C:\Users\Zelgadiss Graywords\Music\Сборники\2012 - Twenty Years In Tears - A Tribute To Lake Of Tears\CD#2\05 - Draconian - Demon You,Lily Anne.wav

     Peak level 99.2 %
     Extraction speed 2.3 X
     Track quality 100.0 %
     Test CRC D1C0AFEF
     Copy CRC D1C0AFEF
     Accurately ripped (confidence 1)  [399EC45F]  (AR v2)
     Copy OK

Track  6

     Filename C:\Users\Zelgadiss Graywords\Music\Сборники\2012 - Twenty Years In Tears - A Tribute To Lake Of Tears\CD#2\06 - Путь Солнца - Return Of Ravens.wav

     Peak level 100.0 %
     Extraction speed 2.3 X
     Track quality 100.0 %
     Test CRC 16DDBB8F
     Copy CRC 16DDBB8F
     Accurately ripped (confidence 1)  [7398FD76]  (AR v2)
     Copy OK

Track  7

     Filename C:\Users\Zelgadiss Graywords\Music\Сборники\2012 - Twenty Years In Tears - A Tribute To Lake Of Tears\CD#2\07 - The Equinox Ov The Gods - Let Us Go As They Do.wav

     Peak level 98.7 %
     Extraction speed 2.5 X
     Track quality 100.0 %
     Test CRC 8818EDC0
     Copy CRC 8818EDC0
     Accurately ripped (confidence 1)  [CC22B15E]  (AR v2)
     Copy OK

Track  8

     Filename C:\Users\Zelgadiss Graywords\Music\Сборники\2012 - Twenty Years In Tears - A Tribute To Lake Of Tears\CD#2\08 - The Mary Major - The Greymen.wav

     Peak level 98.8 %
     Extraction speed 2.6 X
     Track quality 100.0 %
     Test CRC 68CA2527
     Copy CRC 68CA2527
     Accurately ripped (confidence 1)  [9887CFC3]  (AR v2)
     Copy OK

Track  9

     Filename C:\Users\Zelgadiss Graywords\Music\Сборники\2012 - Twenty Years In Tears - A Tribute To Lake Of Tears\CD#2\09 - Xicon - Dystopia.wav

     Peak level 100.0 %
     Extraction speed 2.6 X
     Track quality 100.0 %
     Test CRC C91B3C4F
     Copy CRC C91B3C4F
     Accurately ripped (confidence 1)  [7D1A4224]  (AR v2)
     Copy OK

Track 10

     Filename C:\Users\Zelgadiss Graywords\Music\Сборники\2012 - Twenty Years In Tears - A Tribute To Lake Of Tears\CD#2\10 - Handful Of Stars - Sister Sinister.wav

     Peak level 100.0 %
     Extraction speed 2.8 X
     Track quality 100.0 %
     Test CRC 23FD6FD6
     Copy CRC 23FD6FD6
     Accurately ripped (confidence 1)  [CAA617C9]  (AR v2)
     Copy OK

Track 11

     Filename C:\Users\Zelgadiss Graywords\Music\Сборники\2012 - Twenty Years In Tears - A Tribute To Lake Of Tears\CD#2\11 - Egonaut - Children Of The Grey.wav

     Peak level 100.0 %
     Extraction speed 2.9 X
     Track quality 100.0 %
     Test CRC ACE7F1B6
     Copy CRC ACE7F1B6
     Accurately ripped (confidence 1)  [EC78B5CA]  (AR v2)
     Copy OK

Track 12

     Filename C:\Users\Zelgadiss Graywords\Music\Сборники\2012 - Twenty Years In Tears - A Tribute To Lake Of Tears\CD#2\12 - The Equinox Ov The Gods - Planet Of The Penguins.wav

     Peak level 98.7 %
     Extraction speed 3.2 X
     Track quality 100.0 %
     Test CRC 5D2034D6
     Copy CRC 5D2034D6
     Accurately ripped (confidence 1)  [B0D6E3FC]  (AR v2)
     Copy OK

Track 13

     Filename C:\Users\Zelgadiss Graywords\Music\Сборники\2012 - Twenty Years In Tears - A Tribute To Lake Of Tears\CD#2\13 - Egonaut - Floating In Darkness.wav

     Peak level 100.0 %
     Extraction speed 3.1 X
     Track quality 100.0 %
     Test CRC 62E250D9
     Copy CRC 62E250D9
     Accurately ripped (confidence 1)  [6FE201E2]  (AR v2)
     Copy OK

Track 14

     Filename C:\Users\Zelgadiss Graywords\Music\Сборники\2012 - Twenty Years In Tears - A Tribute To Lake Of Tears\CD#2\14 - Type V Blood - Burn Fire Burn (Bonus Track).wav

     Peak level 100.0 %
     Extraction speed 3.3 X
     Track quality 100.0 %
     Test CRC 002445A2
     Copy CRC 002445A2
     Accurately ripped (confidence 1)  [1DF98C9E]  (AR v2)
     Copy OK

All tracks accurately ripped

No errors occurred

End of status report

---- CUETools DB Plugin V2.1.4

[CTDB TOCID: vLZ6_dO9DMHw5orMGjue4eshgdU-] found
Submit result: vLZ6_dO9DMHw5orMGjue4eshgdU- has been confirmed
Track | CTDB Status
  1   | (1/1) Accurately ripped
  2   | (1/1) Accurately ripped
  3   | (1/1) Accurately ripped
  4   | (1/1) Accurately ripped
  5   | (1/1) Accurately ripped
  6   | (1/1) Accurately ripped
  7   | (1/1) Accurately ripped
  8   | (1/1) Accurately ripped
  9   | (1/1) Accurately ripped
 10   | (1/1) Accurately ripped
 11   | (1/1) Accurately ripped
 12   | (1/1) Accurately ripped
 13   | (1/1) Accurately ripped
 14   | (1/1) Accurately ripped

==== Log checksum 3646A32BFB3A4A3C952A1CAA2334946E83E2E2CD390DC3D822B9FEE4F4EAC224 ====
Код: Выделить всё
REM GENRE "Doom\Gothic Metal"
REM DATE 2012
REM DISCID D10E720E
REM COMMENT "ExactAudioCopy v1.0b3"
PERFORMER "Various Artists"
TITLE "Twenty Years In Tears: A Tribute To Lake Of Tears"
FILE "01 - Awake In Shades - The Four Strings Of Mourning.wav" WAVE
  TRACK 01 AUDIO
    TITLE "The Four Strings Of Mourning"
    PERFORMER "Awake In Shades"
    FLAGS DCP
    INDEX 01 00:00:00
FILE "02 - Algarond - Raistling And The Rose.wav" WAVE
  TRACK 02 AUDIO
    TITLE "Raistling And The Rose"
    PERFORMER "Algarond"
    FLAGS DCP
    INDEX 01 00:00:00
FILE "03 - Shadowgarden - Hold On Tight.wav" WAVE
  TRACK 03 AUDIO
    TITLE "Hold On Tight"
    PERFORMER "Shadowgarden"
    FLAGS DCP
    INDEX 01 00:00:00
FILE "04 - Inside You - Forever Autumn.wav" WAVE
  TRACK 04 AUDIO
    TITLE "Forever Autumn"
    PERFORMER "Inside You"
    FLAGS DCP
    INDEX 01 00:00:00
FILE "05 - Draconian - Demon You,Lily Anne.wav" WAVE
  TRACK 05 AUDIO
    TITLE "Demon You/Lily Anne"
    PERFORMER "Draconian"
    FLAGS DCP
    INDEX 01 00:00:00
FILE "06 - ѕуть —олнца - Return Of Ravens.wav" WAVE
  TRACK 06 AUDIO
    TITLE "Return Of Ravens"
    PERFORMER "ѕуть —олнца"
    FLAGS DCP
    INDEX 01 00:00:00
FILE "07 - The Equinox Ov The Gods - Let Us Go As They Do.wav" WAVE
  TRACK 07 AUDIO
    TITLE "Let Us Go As They Do"
    PERFORMER "The Equinox Ov The Gods"
    FLAGS DCP
    INDEX 01 00:00:00
FILE "08 - The Mary Major - The Greymen.wav" WAVE
  TRACK 08 AUDIO
    TITLE "The Greymen"
    PERFORMER "The Mary Major"
    FLAGS DCP
    INDEX 01 00:00:00
FILE "09 - Xicon - Dystopia.wav" WAVE
  TRACK 09 AUDIO
    TITLE "Dystopia"
    PERFORMER "Xicon"
    FLAGS DCP
    INDEX 01 00:00:00
FILE "10 - Handful Of Stars - Sister Sinister.wav" WAVE
  TRACK 10 AUDIO
    TITLE "Sister Sinister"
    PERFORMER "Handful Of Stars"
    FLAGS DCP
    INDEX 01 00:00:00
FILE "11 - Egonaut - Children Of The Grey.wav" WAVE
  TRACK 11 AUDIO
    TITLE "Children Of The Grey"
    PERFORMER "Egonaut"
    FLAGS DCP
    INDEX 01 00:00:00
FILE "12 - The Equinox Ov The Gods - Planet Of The Penguins.wav" WAVE
  TRACK 12 AUDIO
    TITLE "Planet Of The Penguins"
    PERFORMER "The Equinox Ov The Gods"
    FLAGS DCP
    INDEX 01 00:00:00
FILE "13 - Egonaut - Floating In Darkness.wav" WAVE
  TRACK 13 AUDIO
    TITLE "Floating In Darkness"
    PERFORMER "Egonaut"
    FLAGS DCP
    INDEX 01 00:00:00
FILE "14 - Type V Blood - Burn Fire Burn (Bonus Track).wav" WAVE
  TRACK 14 AUDIO
    TITLE "Burn Fire Burn (Bonus Track)"
    PERFORMER "Type V Blood"
    FLAGS DCP
    INDEX 01 00:00:00



Twenty Years In Tears²: A Tribute To Lake Of Tears

Издатель (лейбл): Fono Ltd.
Номер по каталогу: FO1082-1CD

01. Trails Of Sorrow - Under The Crescent (03:44)
02. Graveyard Of Souls - As Daylight Yields (04:12)
03. Cemetry Of Scream - Evil Inside (05:54)
04. Nadir - A Foreign Road (04:08)
05. Throes Of Ire - Headstones (05:14)
06. The Way On This Earth - Twilight (04:46)
07. Little Dead Bertha - Devil's Diner (04:11)
08. Horus - Lady Rosenred (02:49)
09. The Withering Beauty - So Fell Autumn Rain (08:17)
10. Ennui - Hold On Tight (05:48)
11. Fire - Come Night I Reign (04:14)
12. Shadecrown - Return Of Ravens (03:26)
Код: Выделить всё
Exact Audio Copy V1.0 beta 3 from 29. August 2011

EAC extraction logfile from 24. September 2014, 16:40

Various Artists / Twenty Years In Tears 2: A Tribute To Lake Of Tears

Used drive  : HL-DT-STDVD-RAM GSA-H22N   Adapter: 4  ID: 0

Read mode               : Secure
Utilize accurate stream : Yes
Defeat audio cache      : Yes
Make use of C2 pointers : No

Read offset correction                      : 102
Overread into Lead-In and Lead-Out          : No
Fill up missing offset samples with silence : Yes
Delete leading and trailing silent blocks   : No
Null samples used in CRC calculations       : Yes
Used interface                              : Native Win32 interface for Win NT & 2000
Gap handling                                : Appended to previous track

Used output format              : User Defined Encoder
Selected bitrate                : 128 kBit/s
Quality                         : High
Add ID3 tag                     : No
Command line compressor         : C:\Program Files (x86)\Exact Audio Copy\Flac\flac.exe
Additional command line options : -8 -V -T "ARTIST=%artist%" -T "TITLE=%title%" -T "ALBUM=%albumtitle%" -T "DATE=%year%" -T "TRACKNUMBER=%tracknr%" -T "GENRE=%genre%" -T "PERFORMER=%albuminterpret%" -T "COMPOSER=%composer%" %haslyrics%--tag-from-file=LYRICS="%lyricsfile%"%haslyrics% -T "ALBUMARTIST=%albumartist%" -T "DISCNUMBER=%cdnumber%" -T "TOTALDISCS=%totalcds%" -T "TOTALTRACKS=%numtracks%" -T "COMMENT=%comment%" %source% -o %dest%

TOC of the extracted CD

     Track |   Start  |  Length  | Start sector | End sector
    ---------------------------------------------------------
        1  |  0:00.00 |  3:44.09 |         0    |    16808
        2  |  3:44.09 |  4:11.65 |     16809    |    35698
        3  |  7:55.74 |  5:54.18 |     35699    |    62266
        4  | 13:50.17 |  4:07.56 |     62267    |    80847
        5  | 17:57.73 |  5:14.37 |     80848    |   104434
        6  | 23:12.35 |  4:46.00 |    104435    |   125884
        7  | 27:58.35 |  4:11.37 |    125885    |   144746
        8  | 32:09.72 |  2:49.37 |    144747    |   157458
        9  | 34:59.34 |  8:17.18 |    157459    |   194751
       10  | 43:16.52 |  5:48.18 |    194752    |   220869
       11  | 49:04.70 |  4:14.37 |    220870    |   239956
       12  | 53:19.32 |  3:26.37 |    239957    |   255443

Track  1

     Filename C:\Users\Zelgadiss Graywords\Music\Сборники\2014 - Twenty Years In Tears 2 - A Tribute To Lake Of Tears\CD#1\01 - Trails Of Sorrow - Under The Crescent.wav

     Pre-gap length  0:00:02.00

     Peak level 100.0 %
     Extraction speed 1.3 X
     Track quality 99.9 %
     Test CRC 30A91AE5
     Copy CRC 30A91AE5
     Accurately ripped (confidence 1)  [B0674B29]  (AR v2)
     Copy OK

Track  2

     Filename C:\Users\Zelgadiss Graywords\Music\Сборники\2014 - Twenty Years In Tears 2 - A Tribute To Lake Of Tears\CD#1\02 - Graveyard Of Souls - As Daylight Yields.wav

     Peak level 99.9 %
     Extraction speed 1.8 X
     Track quality 100.0 %
     Test CRC D821A651
     Copy CRC D821A651
     Accurately ripped (confidence 1)  [6E2FAB31]  (AR v2)
     Copy OK

Track  3

     Filename C:\Users\Zelgadiss Graywords\Music\Сборники\2014 - Twenty Years In Tears 2 - A Tribute To Lake Of Tears\CD#1\03 - Cemetry Of Scream - Evil Inside.wav

     Peak level 98.8 %
     Extraction speed 1.9 X
     Track quality 99.9 %
     Test CRC CBA64C85
     Copy CRC CBA64C85
     Accurately ripped (confidence 1)  [3C14C18C]  (AR v2)
     Copy OK

Track  4

     Filename C:\Users\Zelgadiss Graywords\Music\Сборники\2014 - Twenty Years In Tears 2 - A Tribute To Lake Of Tears\CD#1\04 - Nadir - A Foreign Road.wav

     Peak level 100.0 %
     Extraction speed 2.1 X
     Track quality 100.0 %
     Test CRC FEA6E373
     Copy CRC FEA6E373
     Accurately ripped (confidence 1)  [BFA3CD7C]  (AR v2)
     Copy OK

Track  5

     Filename C:\Users\Zelgadiss Graywords\Music\Сборники\2014 - Twenty Years In Tears 2 - A Tribute To Lake Of Tears\CD#1\05 - Throes Of Ire - Headstones.wav

     Peak level 100.0 %
     Extraction speed 2.3 X
     Track quality 100.0 %
     Test CRC 78661E24
     Copy CRC 78661E24
     Accurately ripped (confidence 1)  [653ACDA8]  (AR v2)
     Copy OK

Track  6

     Filename C:\Users\Zelgadiss Graywords\Music\Сборники\2014 - Twenty Years In Tears 2 - A Tribute To Lake Of Tears\CD#1\06 - The Way On This Earth - Twilight.wav

     Peak level 97.9 %
     Extraction speed 2.4 X
     Track quality 100.0 %
     Test CRC 84A37E02
     Copy CRC 84A37E02
     Accurately ripped (confidence 1)  [06AF789B]  (AR v2)
     Copy OK

Track  7

     Filename C:\Users\Zelgadiss Graywords\Music\Сборники\2014 - Twenty Years In Tears 2 - A Tribute To Lake Of Tears\CD#1\07 - Little Dead Bertha - Devil's Diner.wav

     Peak level 96.8 %
     Extraction speed 2.5 X
     Track quality 100.0 %
     Test CRC 4DAA922B
     Copy CRC 4DAA922B
     Accurately ripped (confidence 1)  [65338587]  (AR v2)
     Copy OK

Track  8

     Filename C:\Users\Zelgadiss Graywords\Music\Сборники\2014 - Twenty Years In Tears 2 - A Tribute To Lake Of Tears\CD#1\08 - Horus - Lady Rosenred.wav

     Peak level 100.0 %
     Extraction speed 2.5 X
     Track quality 100.0 %
     Test CRC DBBB4707
     Copy CRC DBBB4707
     Accurately ripped (confidence 1)  [9498DD0B]  (AR v2)
     Copy OK

Track  9

     Filename C:\Users\Zelgadiss Graywords\Music\Сборники\2014 - Twenty Years In Tears 2 - A Tribute To Lake Of Tears\CD#1\09 - The Withering Beauty - So Fell Autumn Rain.wav

     Peak level 100.0 %
     Extraction speed 3.0 X
     Track quality 100.0 %
     Test CRC 79164403
     Copy CRC 79164403
     Accurately ripped (confidence 1)  [65E548EF]  (AR v2)
     Copy OK

Track 10

     Filename C:\Users\Zelgadiss Graywords\Music\Сборники\2014 - Twenty Years In Tears 2 - A Tribute To Lake Of Tears\CD#1\10 - Ennui - Hold On Tight.wav

     Peak level 100.0 %
     Extraction speed 2.8 X
     Track quality 99.9 %
     Test CRC C7A1E6E9
     Copy CRC C7A1E6E9
     Accurately ripped (confidence 1)  [45D8E24B]  (AR v2)
     Copy OK

Track 11

     Filename C:\Users\Zelgadiss Graywords\Music\Сборники\2014 - Twenty Years In Tears 2 - A Tribute To Lake Of Tears\CD#1\11 - Fire - Come Night I Reign.wav

     Peak level 92.4 %
     Extraction speed 3.1 X
     Track quality 100.0 %
     Test CRC D001871E
     Copy CRC D001871E
     Accurately ripped (confidence 1)  [B5844F1F]  (AR v2)
     Copy OK

Track 12

     Filename C:\Users\Zelgadiss Graywords\Music\Сборники\2014 - Twenty Years In Tears 2 - A Tribute To Lake Of Tears\CD#1\12 - Shadecrown - Return Of Ravens.wav

     Peak level 96.2 %
     Extraction speed 2.7 X
     Track quality 99.9 %
     Test CRC E7C9A488
     Copy CRC E7C9A488
     Accurately ripped (confidence 1)  [9C3BA1F0]  (AR v2)
     Copy OK

All tracks accurately ripped

No errors occurred

End of status report

---- CUETools DB Plugin V2.1.3

[CTDB TOCID: gfCAx_5xSMFOXBCp59q1fp9wqho-] disk not present in database, Submit result: gfCAx_5xSMFOXBCp59q1fp9wqho- has been uploaded

==== Log checksum 15AE7EECF5A7C3B234FDC5B33A2B8BEDC02DE4F218ABC3ADD07774FA3E04534A ====
Код: Выделить всё
REM GENRE "Doom\Gothic Metal"
REM DATE 2014
REM DISCID A10D4D0C
REM COMMENT "ExactAudioCopy v1.0b3"
PERFORMER "Various Artists"
TITLE "Twenty Years In Tears 2: A Tribute To Lake Of Tears"
FILE "01 - Trails Of Sorrow - Under The Crescent.wav" WAVE
  TRACK 01 AUDIO
    TITLE "Under The Crescent"
    PERFORMER "Trails Of Sorrow"
    FLAGS DCP
    INDEX 01 00:00:00
FILE "02 - Graveyard Of Souls - As Daylight Yields.wav" WAVE
  TRACK 02 AUDIO
    TITLE "As Daylight Yields"
    PERFORMER "Graveyard Of Souls"
    FLAGS DCP
    INDEX 01 00:00:00
FILE "03 - Cemetry Of Scream - Evil Inside.wav" WAVE
  TRACK 03 AUDIO
    TITLE "Evil Inside"
    PERFORMER "Cemetry Of Scream"
    FLAGS DCP
    INDEX 01 00:00:00
FILE "04 - Nadir - A Foreign Road.wav" WAVE
  TRACK 04 AUDIO
    TITLE "A Foreign Road"
    PERFORMER "Nadir"
    FLAGS DCP
    INDEX 01 00:00:00
FILE "05 - Throes Of Ire - Headstones.wav" WAVE
  TRACK 05 AUDIO
    TITLE "Headstones"
    PERFORMER "Throes Of Ire"
    FLAGS DCP
    INDEX 01 00:00:00
FILE "06 - The Way On This Earth - Twilight.wav" WAVE
  TRACK 06 AUDIO
    TITLE "Twilight"
    PERFORMER "The Way On This Earth"
    FLAGS DCP
    INDEX 01 00:00:00
FILE "07 - Little Dead Bertha - Devil's Diner.wav" WAVE
  TRACK 07 AUDIO
    TITLE "Devil's Diner"
    PERFORMER "Little Dead Bertha"
    FLAGS DCP
    INDEX 01 00:00:00
FILE "08 - Horus - Lady Rosenred.wav" WAVE
  TRACK 08 AUDIO
    TITLE "Lady Rosenred"
    PERFORMER "Horus"
    FLAGS DCP
    INDEX 01 00:00:00
FILE "09 - The Withering Beauty - So Fell Autumn Rain.wav" WAVE
  TRACK 09 AUDIO
    TITLE "So Fell Autumn Rain"
    PERFORMER "The Withering Beauty"
    FLAGS DCP
    INDEX 01 00:00:00
FILE "10 - Ennui - Hold On Tight.wav" WAVE
  TRACK 10 AUDIO
    TITLE "Hold On Tight"
    PERFORMER "Ennui"
    FLAGS DCP
    INDEX 01 00:00:00
FILE "11 - Fire - Come Night I Reign.wav" WAVE
  TRACK 11 AUDIO
    TITLE "Come Night I Reign"
    PERFORMER "Fire"
    FLAGS DCP
    INDEX 01 00:00:00
FILE "12 - Shadecrown - Return Of Ravens.wav" WAVE
  TRACK 12 AUDIO
    TITLE "Return Of Ravens"
    PERFORMER "Shadecrown"
    FLAGS DCP
    INDEX 01 00:00:00
Издатель (лейбл): Fono Ltd.
Номер по каталогу: FO1082-2CD

01. Demenzia - The Greymen (05:10)
02. Mistweaver - Dystopia (03:42)
03. When Nothing Remains - The Organ (06:24)
04. Galadriel - A Trip With The Moon (03:11)
05. Doomed - Last Purple Sky (06:12)
06. The Equinox Ov The Gods - Children Of The Grey (04:44)
07. Lapsus Dei - Illwill (04:35)
08. Dehydrated - U.N.S.A.N.E. (04:42)
09. Lapsus Dei - House Of The Setting Sun (05:10)
10. Svartstorm - Behind The Green Door (03:46)
11. Enclave Of Dreams - Midnight Madness (05:16)
Код: Выделить всё
Exact Audio Copy V1.0 beta 3 from 29. August 2011

EAC extraction logfile from 24. September 2014, 18:29

Various Artists / Twenty Years In Tears 2: A Tribute To Lake Of Tears

Used drive  : HL-DT-STDVD-RAM GSA-H22N   Adapter: 4  ID: 0

Read mode               : Secure
Utilize accurate stream : Yes
Defeat audio cache      : Yes
Make use of C2 pointers : No

Read offset correction                      : 102
Overread into Lead-In and Lead-Out          : No
Fill up missing offset samples with silence : Yes
Delete leading and trailing silent blocks   : No
Null samples used in CRC calculations       : Yes
Used interface                              : Native Win32 interface for Win NT & 2000
Gap handling                                : Appended to previous track

Used output format              : User Defined Encoder
Selected bitrate                : 128 kBit/s
Quality                         : High
Add ID3 tag                     : No
Command line compressor         : C:\Program Files (x86)\Exact Audio Copy\Flac\flac.exe
Additional command line options : -8 -V -T "ARTIST=%artist%" -T "TITLE=%title%" -T "ALBUM=%albumtitle%" -T "DATE=%year%" -T "TRACKNUMBER=%tracknr%" -T "GENRE=%genre%" -T "PERFORMER=%albuminterpret%" -T "COMPOSER=%composer%" %haslyrics%--tag-from-file=LYRICS="%lyricsfile%"%haslyrics% -T "ALBUMARTIST=%albumartist%" -T "DISCNUMBER=%cdnumber%" -T "TOTALDISCS=%totalcds%" -T "TOTALTRACKS=%numtracks%" -T "COMMENT=%comment%" %source% -o %dest%

TOC of the extracted CD

     Track |   Start  |  Length  | Start sector | End sector
    ---------------------------------------------------------
        1  |  0:00.00 |  5:10.37 |         0    |    23286
        2  |  5:10.37 |  3:41.65 |     23287    |    39926
        3  |  8:52.27 |  6:23.46 |     39927    |    68697
        4  | 15:15.73 |  3:11.18 |     68698    |    83040
        5  | 18:27.16 |  6:11.56 |     83041    |   110921
        6  | 24:38.72 |  4:44.00 |    110922    |   132221
        7  | 29:22.72 |  4:35.37 |    132222    |   152883
        8  | 33:58.34 |  4:42.37 |    152884    |   174070
        9  | 38:40.71 |  5:10.28 |    174071    |   197348
       10  | 43:51.24 |  3:46.09 |    197349    |   214307
       11  | 47:37.33 |  5:16.37 |    214308    |   238044

Track  1

     Filename C:\Users\Zelgadiss Graywords\Music\Сборники\2014 - Twenty Years In Tears 2 - A Tribute To Lake Of Tears\CD#2\01 - Demenzia - The Greymen.wav

     Pre-gap length  0:00:02.00

     Peak level 96.6 %
     Extraction speed 1.6 X
     Track quality 100.0 %
     Test CRC E349848A
     Copy CRC E349848A
     Accurately ripped (confidence 1)  [25E097E3]  (AR v2)
     Copy OK

Track  2

     Filename C:\Users\Zelgadiss Graywords\Music\Сборники\2014 - Twenty Years In Tears 2 - A Tribute To Lake Of Tears\CD#2\02 - Mistweaver - Dystopia.wav

     Peak level 99.8 %
     Extraction speed 1.8 X
     Track quality 100.0 %
     Test CRC 97FC6842
     Copy CRC 97FC6842
     Accurately ripped (confidence 1)  [FA0C0EF0]  (AR v2)
     Copy OK

Track  3

     Filename C:\Users\Zelgadiss Graywords\Music\Сборники\2014 - Twenty Years In Tears 2 - A Tribute To Lake Of Tears\CD#2\03 - When Nothing Remains - The Organ.wav

     Peak level 97.0 %
     Extraction speed 2.1 X
     Track quality 100.0 %
     Test CRC 248DA41D
     Copy CRC 248DA41D
     Accurately ripped (confidence 1)  [4FDDE92A]  (AR v2)
     Copy OK

Track  4

     Filename C:\Users\Zelgadiss Graywords\Music\Сборники\2014 - Twenty Years In Tears 2 - A Tribute To Lake Of Tears\CD#2\04 - Galadriel - A Trip With The Moon.wav

     Peak level 97.3 %
     Extraction speed 1.8 X
     Track quality 99.9 %
     Test CRC 80432F54
     Copy CRC 80432F54
     Accurately ripped (confidence 1)  [072ADA67]  (AR v2)
     Copy OK

Track  5

     Filename C:\Users\Zelgadiss Graywords\Music\Сборники\2014 - Twenty Years In Tears 2 - A Tribute To Lake Of Tears\CD#2\05 - Doomed - Last Purple Sky.wav

     Peak level 100.0 %
     Extraction speed 2.4 X
     Track quality 100.0 %
     Test CRC D1108D4A
     Copy CRC D1108D4A
     Accurately ripped (confidence 1)  [B10A2870]  (AR v2)
     Copy OK

Track  6

     Filename C:\Users\Zelgadiss Graywords\Music\Сборники\2014 - Twenty Years In Tears 2 - A Tribute To Lake Of Tears\CD#2\06 - The Equinox Ov The Gods - Children Of The Grey.wav

     Peak level 98.8 %
     Extraction speed 2.5 X
     Track quality 100.0 %
     Test CRC 0D433F6A
     Copy CRC 0D433F6A
     Accurately ripped (confidence 1)  [0927893F]  (AR v2)
     Copy OK

Track  7

     Filename C:\Users\Zelgadiss Graywords\Music\Сборники\2014 - Twenty Years In Tears 2 - A Tribute To Lake Of Tears\CD#2\07 - Lapsus Dei - Illwill.wav

     Peak level 100.0 %
     Extraction speed 2.6 X
     Track quality 100.0 %
     Test CRC 3B7623BE
     Copy CRC 3B7623BE
     Accurately ripped (confidence 1)  [3C267CC9]  (AR v2)
     Copy OK

Track  8

     Filename C:\Users\Zelgadiss Graywords\Music\Сборники\2014 - Twenty Years In Tears 2 - A Tribute To Lake Of Tears\CD#2\08 - Dehydrated - U.N.S.A.N.E..wav

     Peak level 100.0 %
     Extraction speed 2.5 X
     Track quality 99.9 %
     Test CRC 0A86843D
     Copy CRC 0A86843D
     Accurately ripped (confidence 1)  [465D15D7]  (AR v2)
     Copy OK

Track  9

     Filename C:\Users\Zelgadiss Graywords\Music\Сборники\2014 - Twenty Years In Tears 2 - A Tribute To Lake Of Tears\CD#2\09 - Lapsus Dei - House Of The Setting Sun.wav

     Peak level 100.0 %
     Extraction speed 2.9 X
     Track quality 100.0 %
     Test CRC 44B2F89B
     Copy CRC 44B2F89B
     Accurately ripped (confidence 1)  [4F76C03B]  (AR v2)
     Copy OK

Track 10

     Filename C:\Users\Zelgadiss Graywords\Music\Сборники\2014 - Twenty Years In Tears 2 - A Tribute To Lake Of Tears\CD#2\10 - Svartstorm - Behind The Green Door.wav

     Peak level 100.0 %
     Extraction speed 2.6 X
     Track quality 99.9 %
     Test CRC AB7D16A5
     Copy CRC AB7D16A5
     Accurately ripped (confidence 1)  [1F2CA46F]  (AR v2)
     Copy OK

Track 11

     Filename C:\Users\Zelgadiss Graywords\Music\Сборники\2014 - Twenty Years In Tears 2 - A Tribute To Lake Of Tears\CD#2\11 - Enclave Of Dreams - Midnight Madness.wav

     Peak level 97.5 %
     Extraction speed 3.2 X
     Track quality 100.0 %
     Test CRC 3DA474A5
     Copy CRC 3DA474A5
     Accurately ripped (confidence 1)  [BEC661F5]  (AR v2)
     Copy OK

All tracks accurately ripped

No errors occurred

End of status report

---- CUETools DB Plugin V2.1.3

[CTDB TOCID: osSx1WEH0WZ_Ef1b9iKlMVZImgY-] disk not present in database, Submit result: osSx1WEH0WZ_Ef1b9iKlMVZImgY- has been uploaded

==== Log checksum 468E1761096B0C5CFF9EBC73ECA9746EA522036700869F937FB2E5665D4292C4 ====
Код: Выделить всё
REM GENRE "Doom\Gothic Metal"
REM DATE 2014
REM DISCID 840C650B
REM COMMENT "ExactAudioCopy v1.0b3"
PERFORMER "Various Artists"
TITLE "Twenty Years In Tears 2: A Tribute To Lake Of Tears"
FILE "01 - Demenzia - The Greymen.wav" WAVE
  TRACK 01 AUDIO
    TITLE "The Greymen"
    PERFORMER "Demenzia"
    FLAGS DCP
    INDEX 01 00:00:00
FILE "02 - Mistweaver - Dystopia.wav" WAVE
  TRACK 02 AUDIO
    TITLE "Dystopia"
    PERFORMER "Mistweaver"
    FLAGS DCP
    INDEX 01 00:00:00
FILE "03 - When Nothing Remains - The Organ.wav" WAVE
  TRACK 03 AUDIO
    TITLE "The Organ"
    PERFORMER "When Nothing Remains"
    FLAGS DCP
    INDEX 01 00:00:00
FILE "04 - Galadriel - A Trip With The Moon.wav" WAVE
  TRACK 04 AUDIO
    TITLE "A Trip With The Moon"
    PERFORMER "Galadriel"
    FLAGS DCP
    INDEX 01 00:00:00
FILE "05 - Doomed - Last Purple Sky.wav" WAVE
  TRACK 05 AUDIO
    TITLE "Last Purple Sky"
    PERFORMER "Doomed"
    FLAGS DCP
    INDEX 01 00:00:00
FILE "06 - The Equinox Ov The Gods - Children Of The Grey.wav" WAVE
  TRACK 06 AUDIO
    TITLE "Children Of The Grey"
    PERFORMER "The Equinox Ov The Gods"
    FLAGS DCP
    INDEX 01 00:00:00
FILE "07 - Lapsus Dei - Illwill.wav" WAVE
  TRACK 07 AUDIO
    TITLE "Illwill"
    PERFORMER "Lapsus Dei"
    FLAGS DCP
    INDEX 01 00:00:00
FILE "08 - Dehydrated - U.N.S.A.N.E..wav" WAVE
  TRACK 08 AUDIO
    TITLE "U.N.S.A.N.E."
    PERFORMER "Dehydrated"
    FLAGS DCP
    INDEX 01 00:00:00
FILE "09 - Lapsus Dei - House Of The Setting Sun.wav" WAVE
  TRACK 09 AUDIO
    TITLE "House Of The Setting Sun"
    PERFORMER "Lapsus Dei"
    FLAGS DCP
    INDEX 01 00:00:00
FILE "10 - Svartstorm - Behind The Green Door.wav" WAVE
  TRACK 10 AUDIO
    TITLE "Behind The Green Door"
    PERFORMER "Svartstorm"
    FLAGS DCP
    INDEX 01 00:00:00
FILE "11 - Enclave Of Dreams - Midnight Madness.wav" WAVE
  TRACK 11 AUDIO
    TITLE "Midnight Madness"
    PERFORMER "Enclave Of Dreams"
    FLAGS DCP
    INDEX 01 00:00:00
 
Не забывайте говорить Спасибо. Не уходите с раздачи!   
Торрент: Зарегистрирован [22 дек 2014, 19:53] Для скачивания .torrent
необходима регистрация
Или скачать с помощью
MediaGet
Статус:
Проверен
 
.torrent скачан: 1 раз
Хэш: 3ef8a7ae550a9cdf602f71bdd71b3e1766cf3bc3
Размер: 1.66 ГБ (1 778 299 366 байт)
Стать Автором раздачи
 
Аватара пользователя
 
Раздал: 3.77 ТБ
Скачал: 406.3 ГБ
Ратио: 9.496
Сообщения: 468702
Зарегистрирован: 20 янв 2011, 21:15


  • Похожие торренты
    Ответы
    Просмотры
    Последнее сообщение

Вернуться в Сборники "Зарубежный Metal" (lossless)

Ресурс не предоставляет электронные версии произведений, а занимается лишь коллекционированием и каталогизацией ссылок, присылаемых и публикуемых на форуме нашими читателями. Если вы являетесь правообладателем какого-либо представленного материала и не желаете чтобы ссылка на него находилась в нашем каталоге, свяжитесь с нами и мы незамедлительно удалим её. Файлы для обмена на трекере предоставлены пользователями сайта, и администрация не несёт ответственности за их содержание. Просьба не заливать файлы, защищенные авторскими правами, а также файлы нелегального содержания!
cron