(Metal) [CD] VA - Spikefarm Sampler Vol. 1 - 2002, FLAC (image+.cue), lossless

 
 Статистика раздачи 
Размер: 599.95 МБ   |  Зарегистрирован: 27 дек 2014, 19:41   |   .torrent скачан: 0 раз
Сидеров: 1  [ 0 байт/сек ]     Личеров: 0  [ 0 байт/сек ]  
  

(Metal) [CD] VA - Spikefarm Sampler Vol. 1 - 2002, FLAC (image+.cue), lossless

Сообщение Thelver1947 » 27 дек 2014, 19:41

VA - Spikefarm Sampler Vol. 1

Жанр: Metal
Носитель: CD
Страна-производитель диска (релиза): Finland
Год издания: 2002
Издатель (лейбл): Spikefarm Records
Номер по каталогу: Naula 026
Страна исполнителя (группы): Finland , Norway
Аудиокодек: FLAC (*.flac)
Тип рипа: image+.cue
Битрейт аудио: lossless
Продолжительность: 01:15:19
Источник (релизер): Bipolarbear ( спасибо )
Наличие сканов в содержимом раздачи: да
Треклист:
01. Moonsorrow - Kylän Päässä 07:39
02. Ajattara - Itse 04:51
03. The Scarr - Fucked Up, Smashed and Glorious 03:53
04. Silentium - Apart 04:51
05. Shape of Despair - Quiet are the Paintings 14:37
06. Shadow - The Arrival at the Last Quarter 04:49
07. Finntroll - Skogens Hämd 04:05
08. Entwine - New Dawn 03:58
09. Kalmah - Evil in You 05:08
10. Thyrane - Insidious Dream of Inhuman Fear 04:24
11. Ram-Zet - King 05:58
12. The Dead Beginners - Ill Fated 04:15
13. Rapture - Futile 06:42
Код: Выделить всё
Exact Audio Copy V1.0 beta 3 from 29. August 2011

EAC extraction logfile from 16. December 2014, 16:27

Various Artists / Vol. 1 Naulattaa

Used drive  : HL-DT-STBD-RE  WH14NS40   Adapter: 1  ID: 0

Read mode               : Secure
Utilize accurate stream : Yes
Defeat audio cache      : Yes
Make use of C2 pointers : No

Read offset correction                      : 6
Overread into Lead-In and Lead-Out          : No
Fill up missing offset samples with silence : Yes
Delete leading and trailing silent blocks   : No
Null samples used in CRC calculations       : Yes
Used interface                              : Native Win32 interface for Win NT & 2000

Used output format              : User Defined Encoder
Selected bitrate                : 896 kBit/s
Quality                         : High
Add ID3 tag                     : No
Command line compressor         : C:\Program Files (x86)\Exact Audio Copy\Flac\flac.exe
Additional command line options : -6 -V %source%

TOC of the extracted CD

     Track |   Start  |  Length  | Start sector | End sector
    ---------------------------------------------------------
        1  |  0:00.00 |  7:39.05 |         0    |    34429
        2  |  7:39.05 |  4:51.67 |     34430    |    56321
        3  | 12:30.72 |  3:53.43 |     56322    |    73839
        4  | 16:24.40 |  4:51.42 |     73840    |    95706
        5  | 21:16.07 | 14:37.63 |     95707    |   161544
        6  | 35:53.70 |  4:50.42 |    161545    |   183336
        7  | 40:44.37 |  4:06.72 |    183337    |   201858
        8  | 44:51.34 |  3:58.48 |    201859    |   219756
        9  | 48:50.07 |  5:08.63 |    219757    |   242919
       10  | 53:58.70 |  4:24.12 |    242920    |   262731
       11  | 58:23.07 |  5:58.25 |    262732    |   289606
       12  | 64:21.32 |  4:16.03 |    289607    |   308809
       13  | 68:37.35 |  6:42.20 |    308810    |   338979

Range status and errors

Selected range

     Filename S:\[Rips]\Various Artists - Vol. 1 Naulattaa.wav

     Peak level 98.8 %
     Extraction speed 5.7 X
     Range quality 100.0 %
     Test CRC A3DEBB8E
     Copy CRC A3DEBB8E
     Copy OK

No errors occurred

AccurateRip summary

Track  1  accurately ripped (confidence 2)  [8C4B6FA5]  (AR v2)
Track  2  accurately ripped (confidence 2)  [A550F7EE]  (AR v2)
Track  3  accurately ripped (confidence 2)  [1D1E1295]  (AR v2)
Track  4  accurately ripped (confidence 2)  [973058B6]  (AR v2)
Track  5  accurately ripped (confidence 2)  [B09E0C24]  (AR v2)
Track  6  accurately ripped (confidence 2)  [74E24529]  (AR v2)
Track  7  accurately ripped (confidence 2)  [EF0D1E50]  (AR v2)
Track  8  accurately ripped (confidence 2)  [813AC9C6]  (AR v2)
Track  9  accurately ripped (confidence 2)  [B3152E92]  (AR v2)
Track 10  accurately ripped (confidence 2)  [F0BD2ECF]  (AR v2)
Track 11  accurately ripped (confidence 2)  [FEDF38CA]  (AR v2)
Track 12  accurately ripped (confidence 2)  [C2BB3252]  (AR v2)
Track 13  accurately ripped (confidence 2)  [E34831A7]  (AR v2)

All tracks accurately ripped

End of status report

---- CUETools DB Plugin V2.1.3

[CTDB TOCID: 9m.k7uzO4fefx7sVPRZqYBa83oQ-] found, Submit result: already submitted
[38e7f711] (3/3) Accurately ripped

==== Log checksum 052162EAEABA7F84259D8B93578A06D96A196610254B805AA906132E1844F5CB ====
Код: Выделить всё
REM GENRE Metal
REM DATE 2002
REM DISCID BE11A70D
REM COMMENT "ExactAudioCopy v1.0b3"
PERFORMER "Various Artists"
TITLE "Vol. 1 Naulattaa"
FILE "Various Artists - Vol. 1 Naulattaa.flac" WAVE
  TRACK 01 AUDIO
    TITLE "Kylan Paassa"
    PERFORMER "Moonsorrow"
    INDEX 01 00:00:00
  TRACK 02 AUDIO
    TITLE "Itse"
    PERFORMER "Ajattara"
    INDEX 01 07:39:05
  TRACK 03 AUDIO
    TITLE "Fucked Up, Smashed and Glorious"
    PERFORMER "The Scarr"
    INDEX 01 12:30:72
  TRACK 04 AUDIO
    TITLE "Apart"
    PERFORMER "Silentium"
    INDEX 01 16:24:40
  TRACK 05 AUDIO
    TITLE "Quiet are the Paintings"
    PERFORMER "Shape of Despair"
    INDEX 01 21:16:07
  TRACK 06 AUDIO
    TITLE "The Arrival at the Last Quarter"
    PERFORMER "Shadow"
    INDEX 01 35:53:70
  TRACK 07 AUDIO
    TITLE "Skogens Hдmd"
    PERFORMER "Finntroll"
    INDEX 00 40:43:22
    INDEX 01 40:44:37
  TRACK 08 AUDIO
    TITLE "New Dawn"
    PERFORMER "Entwine"
    INDEX 00 44:50:32
    INDEX 01 44:51:34
  TRACK 09 AUDIO
    TITLE "Evil in You"
    PERFORMER "Kalmah"
    INDEX 01 48:50:07
  TRACK 10 AUDIO
    TITLE "Insidious Dream of Inhuman Fear"
    PERFORMER "Thyrane"
    INDEX 01 53:58:70
  TRACK 11 AUDIO
    TITLE "King"
    PERFORMER "Ram-Zet"
    INDEX 01 58:23:07
  TRACK 12 AUDIO
    TITLE "Ill Fated"
    PERFORMER "The Dead Beginners"
    INDEX 01 64:21:32
  TRACK 13 AUDIO
    TITLE "Futile"
    PERFORMER "Rapture"
    INDEX 00 68:36:32
    INDEX 01 68:37:35
Код: Выделить всё
-----------------------

DON'T MODIFY THIS FILE

-----------------------

PERFORMER: auCDtect Task Manager, ver. 1.6.0 RC1 build 1.6.0.1
Copyright (c) 2008-2010 y-soft. All rights reserved
[url=http://y-soft.org]http://y-soft.org[/url]

ANALYZER: auCDtect: CD records authenticity detector, version 0.8.2
Copyright (c) 2004 Oleg Berngardt. All rights reserved.
Copyright (c) 2004 Alexander Djourik. All rights reserved.

FILE: Various Artists - Vol. 1 Naulattaa.flac
  Size: 579734508 Hash: 5B75BBFA32556A5C169B07E0F98F5D55 Accuracy: -m0
  Conclusion: CDDA 100%
  Signature: 7E97E2489BB147BBE0894EACDDD25C083CA8AC67
 
Не забывайте говорить Спасибо. Не уходите с раздачи!   
Торрент: Зарегистрирован [27 дек 2014, 19:41] Для скачивания .torrent
необходима регистрация
Или скачать с помощью
MediaGet
Статус:
Проверен
 
.torrent скачан: 0 раз
Хэш: 4f9ff6760bb9146bf620808690c67726ecac4d0e
Размер: 599.95 МБ (629 096 382 байт)
Стать Автором раздачи
 
 
Раздал: 690.52 МБ
Скачал: 0 байт
Ратио: Seed.
Сообщения: 218210
Зарегистрирован: 14 июн 2014, 21:11


  • Похожие торренты
    Ответы
    Просмотры
    Последнее сообщение

Вернуться в Сборники "Зарубежный Metal" (lossless)

Ресурс не предоставляет электронные версии произведений, а занимается лишь коллекционированием и каталогизацией ссылок, присылаемых и публикуемых на форуме нашими читателями. Если вы являетесь правообладателем какого-либо представленного материала и не желаете чтобы ссылка на него находилась в нашем каталоге, свяжитесь с нами и мы незамедлительно удалим её. Файлы для обмена на трекере предоставлены пользователями сайта, и администрация не несёт ответственности за их содержание. Просьба не заливать файлы, защищенные авторскими правами, а также файлы нелегального содержания!
cron