Семинар «Работа с тИЦ» Андрей Шипилов [2010, RUS]

 
 Статистика раздачи 
Размер: 249.82 МБ   |  Зарегистрирован: 23 янв 2015, 19:37   |   .torrent скачан: 0 раз
Сидеров: 1  [ 0 байт/сек ]     Личеров: 0  [ 0 байт/сек ]  
  

Семинар «Работа с тИЦ» Андрей Шипилов [2010, RUS]

Сообщение BitFire » 23 янв 2015, 19:37

Семинар «Работа с тИЦ»

Год выпуска: 2010
Автор: Андрей Шипилов
Производитель: http://gurutalk.ru
Продолжительность: 2:16:57
Тип раздаваемого материала: Видеоурок
Язык: Русский
Описание:
Семинар «Стратегии поднятия тИЦ» проводится с мая 2010 года и за это время сотни слушателей смогли убедиться в эффективности курса и применить полученные знания на практике. Отчасти семинар посвящен вопросу целенаправленного наращивания тИЦ, но основной упор все же делается на детальное изучение механизмов формирования этого показателя.
Отзывы о семинаре можно прочитать на форуме ссылочной биржи Sape.

В рамках семинара рассматриваются разные модели поднятия тИЦ сайтов в поисковой системе Яндекс, факторы, влияющие на его наращивание и падение.
1. Что такое тИЦ, каков механизм его формирования.
2. Какие параметры, помимо тематики влияют на вес ссылок, передающих тИЦ
3. Какие ссылки передают тИЦ, а какие - нет.
4. Что такое «тематика» и идентична ли она понятию «тематика каталога»
5. Линейные и нелинейные зависимости по формировании тИЦ. Как
использовать нелинейность для наиболее эффективного наращивания тИЦ.
6. Почему не работают или плохо работаю «фильтры наращивания тИЦ»,
которые повсеместно продаются.
7. Допустимое «наращивание» и недопустимая «накрутка» тИЦ, где проходит
граница с точки зрения Яндекса.
8. Связь тИЦ и АГС.
9. Разбор стратегий наращивания тИЦ, ресурсы и инстументы, используемые
для такого наращивания.
a) Стратегии, направленные на автоматизацию процесса.
б) Стратегии, направленные на максимально быстрый результат.
в) Стратегии, направленные на экономию средств.
г) Стратегии, направленные на безопасность.
д) Стратегии, направленные на надежность удержания полученного тИЦ.
Формат видео: WMV
Видео: WMV 9, 640х480, 4:3, 25fps, 768 Kbps.
Аудио: WMA 9, 44.1 KHz, 96.0 Kbps, 2 channels.
Format : Windows Media
File size : 250 MiB
Duration : 2h 16mn
Overall bit rate mode : Constant
Overall bit rate : 255 Kbps
Maximum Overall bit rate : 874 Kbps
Movie name : проект
Encoded date : UTC 2010-08-21 18:47:46.281
Application : Windows Movie Maker 2.1.4028.0

Video
ID : 2
Format : VC-1
Format profile : [email protected]
Codec ID : WMV3
Codec ID/Info : Windows Media Video 9
Codec ID/Hint : WMV3
Description of the codec : Windows Media Video 9
Duration : 2h 16mn
Bit rate mode : Constant
Bit rate : 768 Kbps
Width : 640 pixels
Height : 480 pixels
Display aspect ratio : 4:3
Frame rate : 25.000 fps
Bit depth : 8 bits
Scan type : Progressive
Compression mode : Lossy
Bits/(Pixel*Frame) : 0.100
Stream size : 752 MiB
Language : Russian

Audio
ID : 1
Format : WMA
Format version : Version 2
Codec ID : 161
Codec ID/Info : Windows Media Audio
Description of the codec : Windows Media Audio 9 - 96 kbps, 44 kHz, stereo (A/V) 1-pass CBR
Duration : 2h 16mn
Bit rate mode : Constant
Bit rate : 96.0 Kbps
Channel(s) : 2 channels
Sampling rate : 44.1 KHz
Bit depth : 16 bits
Stream size : 94.1 MiB (38%)
Language : Russian
 
Не забывайте говорить Спасибо. Не уходите с раздачи!   
Торрент: Зарегистрирован [23 янв 2015, 19:37] Для скачивания .torrent
необходима регистрация
Или скачать с помощью
MediaGet
Статус:
Проверен
 
.torrent скачан: 0 раз
Хэш: bffef7f973890d812c155fae6764b149e11d452d
Размер: 249.82 МБ (261 956 320 байт)
Стать Автором раздачи
 
 
Раздал: 398.6 ГБ
Скачал: 172 МБ
Ратио: 2373.085
Сообщения: 228130
Зарегистрирован: 17 апр 2014, 15:26


  • Похожие торренты
    Ответы
    Просмотры
    Последнее сообщение

Вернуться в Разное (Компьютерные видеоуроки)

Ресурс не предоставляет электронные версии произведений, а занимается лишь коллекционированием и каталогизацией ссылок, присылаемых и публикуемых на форуме нашими читателями. Если вы являетесь правообладателем какого-либо представленного материала и не желаете чтобы ссылка на него находилась в нашем каталоге, свяжитесь с нами и мы незамедлительно удалим её. Файлы для обмена на трекере предоставлены пользователями сайта, и администрация не несёт ответственности за их содержание. Просьба не заливать файлы, защищенные авторскими правами, а также файлы нелегального содержания!
cron