Doragon Boru Zetto Fukkatsu no "F" / Dragon Ball Z: Revival of "F" / Драгон Болл Z: Возрождение "Ф" [2015, trailers] WEB-DLRip 1080p Raw

 
 Статистика раздачи 
Размер: 52.88 МБ   |  Зарегистрирован: 12 мар 2015, 17:07   |   .torrent скачан: 0 раз
Сидеров: 1  [ 0 байт/сек ]     Личеров: 0  [ 0 байт/сек ]  
  

Doragon Boru Zetto Fukkatsu no "F" / Dragon Ball Z: Revival of "F" / Драгон Болл Z: Возрождение "Ф" [2015, trailers] WEB-DLRip 1080p Raw

Сообщение Thistoll » 12 мар 2015, 17:07

Doragon Boru Zetto Fukkatsu no "F"
Dragon Ball Z: Revival of "F"
Драгон Болл Z: Возрождение "Ф"

Жанр: приключения, комедия, фэнтези, сёнэн
Тип: трейлеры
Количество серий: 3
Продолжительность: 1 - 1,5 мин
Качество видео: WEB-DLRip
Дата премьеры / период выхода: 18 апреля 2015
Производство/студия: Toei Animation
Автор оригинала: Akira Toriyama
Режиссер: Tadayoshi Yamamuro

Описание:
После прошедшей битвы Сон Гоку с богом разрушения Биллс-сама в предыдущем фильме, остатки войска Фриза вернулись на Землю, чтобы найти Драгон Боллы. Их цель состоит в том, чтобы возродить Фризу и вернуть его к власти. Подвернувшийся под руку император Пилаф и остальная часть его банды решают помочь собрать Драгон Боллы, чтобы помочь им возродить Фризу. И это худшее желание в истории в конце концов было исполнено...
И так, битва превыше богов начинается!

Видео: MPEG-4 AVC 1920x1090, 23,976 fps, ~2072 kb/s
Аудио: A_AAC, 2ch, 44 kHz, 126 kbps
Звук: Японский
Тип субтитров: подключаемые
Язык субтитров: Русский
1. Трейлер 1
2. Трейлер 2
3. Трейлер 3
Код:
Код: Выделить всё
Общее
Полное имя                               : G:\DBZ-Revival of F\Trailers\DBZ-Movie Revival of F Trailer 1.mp4
Формат                                   : MPEG-4
Профиль формата                          : Base Media
Идентификатор кодека                     : isom
Размер файла                             : 11,6 Мбайт
Продолжительность                        : 44 с.
Общий поток                              : 2201 Кбит/сек
Программа кодирования                    : Lavf55.22.100

Видео
Идентификатор                            : 1
Формат                                   : AVC
Формат/Информация                        : Advanced Video Codec
Профиль формата                          :
Параметр CABAC формата                   : Да
Параметр ReFrames формата                : 3 кадра
Идентификатор кодека                     : avc1
Идентификатор кодека/Информация          : Advanced Video Coding
Продолжительность                        : 44 с.
Битрейт                                  : 2072 Кбит/сек
Ширина                                   : 1920 пикселей
Высота                                   : 1080 пикселей
Соотношение сторон                       : 16:9
Режим частоты кадров                     : Переменный
Частота кадров                           : 23,976 кадра/сек
Минимальная частота кадров               : 23,974 кадра/сек
Максимальная частота кадров              : 23,981 кадра/сек
Цветовое пространство                    : YUV
Субдискретизация насыщенности            : 4:2:0
Битовая глубина                          : 8 бит
Тип развёртки                            : Прогрессивная
Бит/(Пиксели*Кадры)                      : 0.042
Размер потока                            : 10,9 Мбайт (94%)

Аудио
Идентификатор                            : 2
Формат                                   : AAC
Формат/Информация                        : Advanced Audio Codec
Профиль формата                          : LC
Идентификатор кодека                     : 40
Продолжительность                        : 44 с.
Вид битрейта                             : Постоянный
Битрейт                                  : 126 Кбит/сек
Каналы                                   : 2 канала
Расположение каналов                     : Front: L R
Частота                                  : 44,1 КГц
Метод сжатия                             : С потерями
Размер потока                            : 676 Кбайт (6%)
Дополнительная информация:
Трейлеры к фильму. Впоследствии они останутся в раздаче, как бонусный материал.

Скриншоты:


Время раздачи: 24/7 (круглосуточно)
 
Не забывайте говорить Спасибо. Не уходите с раздачи!   
Торрент: Зарегистрирован [12 мар 2015, 17:07] Для скачивания .torrent
необходима регистрация
Или скачать с помощью
MediaGet
Статус:
Проверен
 
.torrent скачан: 0 раз
Хэш: 59f2f25c5d1647ca7b157d5719174085a591194f
Размер: 52.88 МБ (55 448 800 байт)
Стать Автором раздачи
 
 
Раздал: 6.67 ГБ
Скачал: 302.5 МБ
Ратио: 22.576
Сообщения: 374198
Зарегистрирован: 17 апр 2014, 11:05


  • Похожие торренты
    Ответы
    Просмотры
    Последнее сообщение

Вернуться в Аниме и всё, что с ним связано

Ресурс не предоставляет электронные версии произведений, а занимается лишь коллекционированием и каталогизацией ссылок, присылаемых и публикуемых на форуме нашими читателями. Если вы являетесь правообладателем какого-либо представленного материала и не желаете чтобы ссылка на него находилась в нашем каталоге, свяжитесь с нами и мы незамедлительно удалим её. Файлы для обмена на трекере предоставлены пользователями сайта, и администрация не несёт ответственности за их содержание. Просьба не заливать файлы, защищенные авторскими правами, а также файлы нелегального содержания!
cron