(Grindcore, Death Metal, Thrash Metal, Hardcore, Crust) VA - Grind Bastards Vol. 3, 4, 5, 6, 8 (2009-2014), FLAC (image+.cue), lossless

 
 Статистика раздачи 
Размер: 1.81 ГБ   |  Зарегистрирован: 28 мар 2015, 19:27   |   .torrent скачан: 1 раз
Сидеров: 1  [ 0 байт/сек ]     Личеров: 0  [ 0 байт/сек ]  
  

(Grindcore, Death Metal, Thrash Metal, Hardcore, Crust) VA - Grind Bastards Vol. 3, 4, 5, 6, 8 (2009-2014), FLAC (image+.cue), lossless

Сообщение bagouser » 28 мар 2015, 19:27

VA - Grind Bastards Vol. 3, 4, 5, 6, 8 (2009-2014)

Жанр: Grindcore, Death Metal, Thrash Metal, Hardcore, Crust
Страна: World Wide
Источники: Оригинальные диски
Аудио кодек: FLAC
Битрейт аудио: lossless
Полиграфия: Присутствует полностью
Год выпуска: 2009
Производитель диска: Grind Freaks
Формат: FLAC image+.cue
Продолжительность: 44:33
Треклист:
01. Little Bastards – Lie, Deceive, Steal
02. Little Bastards – Killed By Justice
03. Magnicide – Misery Of An Existance
04. Magnicide – Isolationist Pressure
05. Mortalized – Funeral Grind
06. Mortalized – Enless Bullet
07. Butcher ABC – Vice
08. Butcher ABC – Crime Against Humanity (Carnage cover)
09. Cortecuellos – Don't Call Japanese Hardcore Japcore (AxCx cover)
10. Brob – Greed Kills
11. Brob – Disgusting Authority
12. Mangirl – Ghoul Gurumand
13. Mangirl – Broken Into Pieces (Unholy Grave cover)
14. Fortitude – Ptomaine Poisoning (Disastrous Murmur cover)
15. Bleeding Humanity – Path To The Future
16. Bleeding Humanity – The Manipulated
17. Bleeding Humanity – Battlefield / Reality
18. DxIxE – Aberchus
19. DxIxE – Overheat Mountain
20. Kutsujoku – Toso
21. Kutsujoku – Tsugunai
22. Kutsujoku – Shikabane
23. Kutsujoku – Haibokusha
24. Deadly Spawn – Omnipotence Is Impotence
25. Zagio Evha Dilegj – Last Day Alive
26. Unholy Grave – Cruel Terror
Код: Выделить всё
Exact Audio Copy V1.0 beta 3 from 29. August 2011

EAC extraction logfile from 25. July 2014, 14:25

Various / Grind Bastards Vol.3

Used drive  : PIONEER DVD-RW  DVR-215   Adapter: 0  ID: 1

Read mode               : Secure
Utilize accurate stream : Yes
Defeat audio cache      : Yes
Make use of C2 pointers : No

Read offset correction                      : 48
Overread into Lead-In and Lead-Out          : No
Fill up missing offset samples with silence : Yes
Delete leading and trailing silent blocks   : No
Null samples used in CRC calculations       : Yes
Used interface                              : Installed external ASPI interface

Used output format              : User Defined Encoder
Selected bitrate                : 1024 kBit/s
Quality                         : High
Add ID3 tag                     : Yes
Command line compressor         : C:\Program Files\Exact Audio Copy\Flac\flac.exe
Additional command line options : -8 -V -T "ARTIST=%artist%" -T "TITLE=%title%" -T "ALBUM=%albumtitle%" -T "DATE=%year%" -T "TRACKNUMBER=%tracknr%" -T "GENRE=%genre%" -T "COMMENT=%comment%" -T "BAND=%albuminterpret%" -T "COMPOSER=%composer%" %haslyrics%--tag-from-file=LYRICS="%lyricsfile%"%haslyrics% -T "TOTALTRACKS=%numtracks%" %hascover%--picture="%coverfile%"%hascover% %source% -o %dest%

TOC of the extracted CD

     Track |   Start  |  Length  | Start sector | End sector
    ---------------------------------------------------------
        1  |  0:00.00 |  1:26.27 |         0    |     6476
        2  |  1:26.27 |  1:55.35 |      6477    |    15136
        3  |  3:21.62 |  2:25.58 |     15137    |    26069
        4  |  5:47.45 |  1:27.42 |     26070    |    32636
        5  |  7:15.12 |  1:05.62 |     32637    |    37573
        6  |  8:20.74 |  0:49.71 |     37574    |    41319
        7  |  9:10.70 |  3:15.01 |     41320    |    55945
        8  | 12:25.71 |  2:08.69 |     55946    |    65614
        9  | 14:34.65 |  0:38.65 |     65615    |    68529
       10  | 15:13.55 |  0:47.67 |     68530    |    72121
       11  | 16:01.47 |  0:44.67 |     72122    |    75488
       12  | 16:46.39 |  3:28.07 |     75489    |    91095
       13  | 20:14.46 |  2:54.00 |     91096    |   104145
       14  | 23:08.46 |  1:36.44 |    104146    |   111389
       15  | 24:45.15 |  0:56.72 |    111390    |   115661
       16  | 25:42.12 |  2:03.06 |    115662    |   124892
       17  | 27:45.18 |  1:55.69 |    124893    |   133586
       18  | 29:41.12 |  0:44.60 |    133587    |   136946
       19  | 30:25.72 |  1:44.24 |    136947    |   144770
       20  | 32:10.21 |  0:52.08 |    144771    |   148678
       21  | 33:02.29 |  1:07.50 |    148679    |   153753
       22  | 34:10.04 |  0:41.53 |    153754    |   156881
       23  | 34:51.57 |  1:58.16 |    156882    |   165747
       24  | 36:49.73 |  4:48.36 |    165748    |   187383
       25  | 41:38.34 |  0:36.19 |    187384    |   190102
       26  | 42:14.53 |  2:18.29 |    190103    |   200481

Range status and errors

Selected range

     Filename Z:\LOSSLESS FOR SARGE #4\V.A. -2009- Grind Bastards Vol. 3\grave-006.wav

     Peak level 100.0 %
     Extraction speed 6.8 X
     Range quality 100.0 %
     Test CRC 389BF523
     Copy CRC 389BF523
     Copy OK

No errors occurred

AccurateRip summary

Track  1  not present in database
Track  2  not present in database
Track  3  not present in database
Track  4  not present in database
Track  5  not present in database
Track  6  not present in database
Track  7  not present in database
Track  8  not present in database
Track  9  not present in database
Track 10  not present in database
Track 11  not present in database
Track 12  not present in database
Track 13  not present in database
Track 14  not present in database
Track 15  not present in database
Track 16  not present in database
Track 17  not present in database
Track 18  not present in database
Track 19  not present in database
Track 20  not present in database
Track 21  not present in database
Track 22  not present in database
Track 23  not present in database
Track 24  not present in database
Track 25  not present in database
Track 26  not present in database

None of the tracks are present in the AccurateRip database

End of status report

---- CUETools DB Plugin V2.1.5

[CTDB TOCID: 6w1TKlSTWVBLzJhk5zQlLbvC5QY-] disk not present in database
Submit result: 6w1TKlSTWVBLzJhk5zQlLbvC5QY- has been uploaded

==== Log checksum EDF30E3875EC243E0BC2E8BC83A03AD9148B8D4697B9D3C86103D73B20B0D18D ====
#77Год выпуска: 2010
Производитель диска: Grind Freaks
Формат: FLAC image+.cue
Продолжительность: 48:45
Треклист:
01. Disgunder – Ruminate/Incise
02. ADA†MAX – Electric Shock
03. Zomba Greeen – 罅精進
04. Zomba Greeen – 汚水処理犯
05. Zomba Greeen – Dead Of Night
06. Total Fucking Destruction – It's Only Attitude
07. Total Fucking Destruction – Battle Command In Future
08. Total Fucking Destruction – Murdernumber
09. Total Fucking Destruction – Attacks Of The Supervirus
10. Total Fucking Destruction – Everything You Need But Nothing You Want
11. Total Fucking Destruction – Farewell Kiss
12. Vulgaroyal Bloodhill – Quitar Las Tripas A Un Dios
13. Vulgaroyal Bloodhill – Desinfectante Espermatozoide
14. Vulgaroyal Bloodhill – I Executioner (M.O.D. cover)
15. Diborce – Sweet 33
16. Riverge – A & a
17. Riverge – Stand In Fear Of Nothin'
18. Little Bastards – Leave Me Alone
19. Little Bastards – Death Waits
20. Fortitude – Cadaverous Faces
21. Naqro – Scare To Life
22. Black Ganion – 前衛の雫
23. Mortalized – Hate Your World
24. Die You Bastard! – 思無邪(オモイヨコシマナク)
25. Unholy Grave – Kamui(カムイ
26. Unholy Grave – Death By Terror
27. Unholy Grave – Venom Thrower
Код: Выделить всё
Exact Audio Copy V1.0 beta 3 from 29. August 2011

EAC extraction logfile from 25. July 2014, 14:01

Various / Grind Bastards Vol.4

Used drive  : PIONEER DVD-RW  DVR-215   Adapter: 0  ID: 1

Read mode               : Secure
Utilize accurate stream : Yes
Defeat audio cache      : Yes
Make use of C2 pointers : No

Read offset correction                      : 48
Overread into Lead-In and Lead-Out          : No
Fill up missing offset samples with silence : Yes
Delete leading and trailing silent blocks   : No
Null samples used in CRC calculations       : Yes
Used interface                              : Installed external ASPI interface

Used output format              : User Defined Encoder
Selected bitrate                : 1024 kBit/s
Quality                         : High
Add ID3 tag                     : Yes
Command line compressor         : C:\Program Files\Exact Audio Copy\Flac\flac.exe
Additional command line options : -8 -V -T "ARTIST=%artist%" -T "TITLE=%title%" -T "ALBUM=%albumtitle%" -T "DATE=%year%" -T "TRACKNUMBER=%tracknr%" -T "GENRE=%genre%" -T "COMMENT=%comment%" -T "BAND=%albuminterpret%" -T "COMPOSER=%composer%" %haslyrics%--tag-from-file=LYRICS="%lyricsfile%"%haslyrics% -T "TOTALTRACKS=%numtracks%" %hascover%--picture="%coverfile%"%hascover% %source% -o %dest%

TOC of the extracted CD

     Track |   Start  |  Length  | Start sector | End sector
    ---------------------------------------------------------
        1  |  0:00.00 |  1:56.60 |         0    |     8759
        2  |  1:56.60 |  3:02.63 |      8760    |    22472
        3  |  4:59.48 |  1:26.27 |     22473    |    28949
        4  |  6:26.00 |  1:29.67 |     28950    |    35691
        5  |  7:55.67 |  2:23.49 |     35692    |    46465
        6  | 10:19.41 |  0:40.56 |     46466    |    49521
        7  | 11:00.22 |  0:58.53 |     49522    |    53924
        8  | 11:59.00 |  0:27.32 |     53925    |    55981
        9  | 12:26.32 |  0:49.60 |     55982    |    59716
       10  | 13:16.17 |  1:14.26 |     59717    |    65292
       11  | 14:30.43 |  0:48.53 |     65293    |    68945
       12  | 15:19.21 |  2:05.06 |     68946    |    78326
       13  | 17:24.27 |  0:15.51 |     78327    |    79502
       14  | 17:40.03 |  0:32.30 |     79503    |    81932
       15  | 18:12.33 |  1:28.65 |     81933    |    88597
       16  | 19:41.23 |  2:22.37 |     88598    |    99284
       17  | 22:03.60 |  3:37.02 |     99285    |   115561
       18  | 25:40.62 |  1:41.42 |    115562    |   123178
       19  | 27:22.29 |  1:50.63 |    123179    |   131491
       20  | 29:13.17 |  1:59.06 |    131492    |   140422
       21  | 31:12.23 |  4:05.06 |    140423    |   158803
       22  | 35:17.29 |  1:57.74 |    158804    |   167652
       23  | 37:15.28 |  0:27.38 |    167653    |   169715
       24  | 37:42.66 |  5:28.70 |    169716    |   194385
       25  | 43:11.61 |  0:35.62 |    194386    |   197072
       26  | 43:47.48 |  2:29.29 |    197073    |   208276
       27  | 46:17.02 |  2:27.52 |    208277    |   219353

Range status and errors

Selected range

     Filename Z:\LOSSLESS FOR SARGE #4\V.A. -2010- Grind Bastards Vol. 4\grave-007.wav

     Peak level 90.6 %
     Extraction speed 7.0 X
     Range quality 100.0 %
     Test CRC 9F3321CC
     Copy CRC 9F3321CC
     Copy OK

No errors occurred

AccurateRip summary

Track  1  not present in database
Track  2  not present in database
Track  3  not present in database
Track  4  not present in database
Track  5  not present in database
Track  6  not present in database
Track  7  not present in database
Track  8  not present in database
Track  9  not present in database
Track 10  not present in database
Track 11  not present in database
Track 12  not present in database
Track 13  not present in database
Track 14  not present in database
Track 15  not present in database
Track 16  not present in database
Track 17  not present in database
Track 18  not present in database
Track 19  not present in database
Track 20  not present in database
Track 21  not present in database
Track 22  not present in database
Track 23  not present in database
Track 24  not present in database
Track 25  not present in database
Track 26  not present in database
Track 27  not present in database

None of the tracks are present in the AccurateRip database

End of status report

---- CUETools DB Plugin V2.1.5

[CTDB TOCID: tkuoWT35Lgw02EBHi7uk4NDMz_w-] disk not present in database
Submit result: tkuoWT35Lgw02EBHi7uk4NDMz_w- has been uploaded

==== Log checksum 2C07900A8B066B5EB36363E3C214E610FEED0E719933FE6969F28ED2FF3D34AA ====
#77Год выпуска: 2011
Производитель диска: Grind Freaks
Формат: FLAC image+.cue
Продолжительность: 54:20
Треклист:
01. Red Ran Amber – Demitri (Ver.2011)
02. N.E.K. – Vida Podre
03. N.E.K. – Olhos Inquietos
04. ADA†MAX – 落書きだらけのシスター
05. Mortalized – Asino Wa Ruia Itu
06. Agathocles – Eaten
07. Extreme Noise Destroyer – Intro
08. Extreme Noise Destroyer – Needless
09. Extreme Noise Destroyer – Hypocrisy
10. Extreme Noise Destroyer – 蝙蝠男
11. Hell And Hell – Hell Breaks Loose
12. Little Bastards – Painless Torcher
13. Little Bastards – Last Ride
14. Easies – One O One
15. Easies – Volt Of Shit
16. Easies – Dig
17. Fortitude – Elder Abuse
18. Brob – S.G.R
19. Brob – Flash Back
20. Brob – Hate You!!!
21. Parasite – Gate Of Destruction
22. Naqro – Desire
23. Naqro – Dismay Discord Disorder
24. Midnight Resurrector – Western Cannibal (feat. キド兄 B / あ・基準)
25. Midnight Resurrector – Crawlspace (Outcold cover)
26. Unholy Grave – Persecuted Pt.2
27. Unholy Grave – Long Distance Game
Код: Выделить всё
Exact Audio Copy V1.0 beta 3 from 29. August 2011

EAC extraction logfile from 25. July 2014, 13:39

Various / Grind Bastards Vol.5

Used drive  : PIONEER DVD-RW  DVR-215   Adapter: 0  ID: 1

Read mode               : Secure
Utilize accurate stream : Yes
Defeat audio cache      : Yes
Make use of C2 pointers : No

Read offset correction                      : 48
Overread into Lead-In and Lead-Out          : No
Fill up missing offset samples with silence : Yes
Delete leading and trailing silent blocks   : No
Null samples used in CRC calculations       : Yes
Used interface                              : Installed external ASPI interface

Used output format              : User Defined Encoder
Selected bitrate                : 1024 kBit/s
Quality                         : High
Add ID3 tag                     : Yes
Command line compressor         : C:\Program Files\Exact Audio Copy\Flac\flac.exe
Additional command line options : -8 -V -T "ARTIST=%artist%" -T "TITLE=%title%" -T "ALBUM=%albumtitle%" -T "DATE=%year%" -T "TRACKNUMBER=%tracknr%" -T "GENRE=%genre%" -T "COMMENT=%comment%" -T "BAND=%albuminterpret%" -T "COMPOSER=%composer%" %haslyrics%--tag-from-file=LYRICS="%lyricsfile%"%haslyrics% -T "TOTALTRACKS=%numtracks%" %hascover%--picture="%coverfile%"%hascover% %source% -o %dest%

TOC of the extracted CD

     Track |   Start  |  Length  | Start sector | End sector
    ---------------------------------------------------------
        1  |  0:00.00 |  1:46.38 |         0    |     7987
        2  |  1:46.38 |  0:52.16 |      7988    |    11903
        3  |  2:38.54 |  1:46.19 |     11904    |    19872
        4  |  4:24.73 |  2:08.59 |     19873    |    29531
        5  |  6:33.57 |  1:11.09 |     29532    |    34865
        6  |  7:44.66 |  3:25.40 |     34866    |    50280
        7  | 11:10.31 |  0:46.60 |     50281    |    53790
        8  | 11:57.16 |  2:46.45 |     53791    |    66285
        9  | 14:43.61 |  1:07.52 |     66286    |    71362
       10  | 15:51.38 |  1:58.74 |     71363    |    80286
       11  | 17:50.37 |  3:54.34 |     80287    |    97870
       12  | 21:44.71 |  2:49.33 |     97871    |   110578
       13  | 24:34.29 |  1:21.51 |    110579    |   116704
       14  | 25:56.05 |  1:21.43 |    116705    |   122822
       15  | 27:17.48 |  1:18.67 |    122823    |   128739
       16  | 28:36.40 |  2:09.00 |    128740    |   138414
       17  | 30:45.40 |  2:23.58 |    138415    |   149197
       18  | 33:09.23 |  0:54.67 |    149198    |   153314
       19  | 34:04.15 |  0:59.72 |    153315    |   157811
       20  | 35:04.12 |  1:11.08 |    157812    |   163144
       21  | 36:15.20 |  5:05.35 |    163145    |   186054
       22  | 41:20.55 |  2:41.42 |    186055    |   198171
       23  | 44:02.22 |  3:07.35 |    198172    |   212231
       24  | 47:09.57 |  2:50.29 |    212232    |   225010
       25  | 50:00.11 |  1:28.24 |    225011    |   231634
       26  | 51:28.35 |  1:18.20 |    231635    |   237504
       27  | 52:46.55 |  1:33.24 |    237505    |   244503

Range status and errors

Selected range

     Filename Z:\LOSSLESS FOR SARGE #4\V.A. -2011- Grind Bastards Vol. 5\grave 008.wav

     Peak level 82.6 %
     Extraction speed 7.2 X
     Range quality 100.0 %
     Test CRC 0A268134
     Copy CRC 0A268134
     Copy OK

No errors occurred

AccurateRip summary

Track  1  not present in database
Track  2  not present in database
Track  3  not present in database
Track  4  not present in database
Track  5  not present in database
Track  6  not present in database
Track  7  not present in database
Track  8  not present in database
Track  9  not present in database
Track 10  not present in database
Track 11  not present in database
Track 12  not present in database
Track 13  not present in database
Track 14  not present in database
Track 15  not present in database
Track 16  not present in database
Track 17  not present in database
Track 18  not present in database
Track 19  not present in database
Track 20  not present in database
Track 21  not present in database
Track 22  not present in database
Track 23  not present in database
Track 24  not present in database
Track 25  not present in database
Track 26  not present in database
Track 27  not present in database

None of the tracks are present in the AccurateRip database

End of status report

---- CUETools DB Plugin V2.1.5

[CTDB TOCID: 3w7W9XS1bg61Nu361WoCoBp8Npg-] disk not present in database
Submit result: 3w7W9XS1bg61Nu361WoCoBp8Npg- has been uploaded

==== Log checksum 060147ADE792D41EEDB1CB02FACF29A408FD4F151B968012D70C326FE12A1778 ====
#77Год выпуска: 2012
Производитель диска: Grind Freaks
Формат: FLAC image+.cue
Продолжительность: 50:27
Треклист:
01. Parasite – Vanishing Twin
02. Mortalized – Hellgazer
03. Mecosario – Cruza Roja
04. Mecosario – Central Japan (Final Conflict cover)
05. Darge – Tormento
06. Naqro – Gross Pain
07. Orgasm Grind Disruption – Leni
08. Orgasm Grind Disruption – My Chamber
09. Shikabane – 絶交 / 鍵
10. Hell And Hell – Economic Chain
11. Malebolgia – Complete System
12. Malebolgia – You Bastard!
13. Fortitude – Lower Depth
14. Massgrave – P.F.O.G. Masterbation
15. Little Bastards – Discharge
16. Little Bastards – Days Black
17. Flagitious Idiosyncrasy In The Dilapidation – 焦燥
18. Doraid – Act As The Feelings
19. Butcher ABC – Invasive Caskemination
20. Unholy Grave – Passion Beater
21. Schreckwürmer – 3.11 Blast For Bright Future
Код: Выделить всё
Exact Audio Copy V1.0 beta 3 from 29. August 2011

EAC extraction logfile from 25. July 2014, 13:16

Various / Grind Bastards Vol.6

Used drive  : PIONEER DVD-RW  DVR-215   Adapter: 0  ID: 1

Read mode               : Secure
Utilize accurate stream : Yes
Defeat audio cache      : Yes
Make use of C2 pointers : No

Read offset correction                      : 48
Overread into Lead-In and Lead-Out          : No
Fill up missing offset samples with silence : Yes
Delete leading and trailing silent blocks   : No
Null samples used in CRC calculations       : Yes
Used interface                              : Installed external ASPI interface

Used output format              : User Defined Encoder
Selected bitrate                : 1024 kBit/s
Quality                         : High
Add ID3 tag                     : Yes
Command line compressor         : C:\Program Files\Exact Audio Copy\Flac\flac.exe
Additional command line options : -8 -V -T "ARTIST=%artist%" -T "TITLE=%title%" -T "ALBUM=%albumtitle%" -T "DATE=%year%" -T "TRACKNUMBER=%tracknr%" -T "GENRE=%genre%" -T "COMMENT=%comment%" -T "BAND=%albuminterpret%" -T "COMPOSER=%composer%" %haslyrics%--tag-from-file=LYRICS="%lyricsfile%"%haslyrics% -T "TOTALTRACKS=%numtracks%" %hascover%--picture="%coverfile%"%hascover% %source% -o %dest%

TOC of the extracted CD

     Track |   Start  |  Length  | Start sector | End sector
    ---------------------------------------------------------
        1  |  0:00.00 |  3:01.16 |         0    |    13590
        2  |  3:01.16 |  1:00.00 |     13591    |    18090
        3  |  4:01.16 |  1:34.26 |     18091    |    25166
        4  |  5:35.42 |  1:36.00 |     25167    |    32366
        5  |  7:11.42 |  1:12.42 |     32367    |    37808
        6  |  8:24.09 |  4:18.64 |     37809    |    57222
        7  | 12:42.73 |  0:46.27 |     57223    |    60699
        8  | 13:29.25 |  0:54.25 |     60700    |    64774
        9  | 14:23.50 |  4:40.55 |     64775    |    85829
       10  | 19:04.30 |  3:36.25 |     85830    |   102054
       11  | 22:40.55 |  1:42.26 |    102055    |   109730
       12  | 24:23.06 |  0:35.42 |    109731    |   112397
       13  | 24:58.48 |  2:23.01 |    112398    |   123123
       14  | 27:21.49 |  2:01.00 |    123124    |   132198
       15  | 29:22.49 |  2:15.03 |    132199    |   142326
       16  | 31:37.52 |  1:08.00 |    142327    |   147426
       17  | 32:45.52 |  1:53.45 |    147427    |   155946
       18  | 34:39.22 |  3:01.61 |    155947    |   169582
       19  | 37:41.08 |  1:56.60 |    169583    |   178342
       20  | 39:37.68 |  1:11.00 |    178343    |   183667
       21  | 40:48.68 |  9:37.55 |    183668    |   226997

Range status and errors

Selected range

     Filename Z:\LOSSLESS FOR SARGE #4\V.A. -2012- Grind Bastards Vol. 6\grave 009.wav

     Peak level 86.2 %
     Extraction speed 7.0 X
     Range quality 100.0 %
     Test CRC D1A2E76E
     Copy CRC D1A2E76E
     Copy OK

No errors occurred

AccurateRip summary

Track  1  not present in database
Track  2  not present in database
Track  3  not present in database
Track  4  not present in database
Track  5  not present in database
Track  6  not present in database
Track  7  not present in database
Track  8  not present in database
Track  9  not present in database
Track 10  not present in database
Track 11  not present in database
Track 12  not present in database
Track 13  not present in database
Track 14  not present in database
Track 15  not present in database
Track 16  not present in database
Track 17  not present in database
Track 18  not present in database
Track 19  not present in database
Track 20  not present in database
Track 21  not present in database

None of the tracks are present in the AccurateRip database

End of status report

---- CUETools DB Plugin V2.1.5

[CTDB TOCID: AwaE0nJKPHQLyy.r4ZW3TXqbdwQ-] disk not present in database
Submit result: AwaE0nJKPHQLyy.r4ZW3TXqbdwQ- has been uploaded

==== Log checksum 92E4F0C953BF456C99152E165F7B0CA859A6E9858D4316CA389F8D87A52C3E50 ====
#77Год выпуска: 2014
Производитель диска: Grind Freaks
Формат: FLAC image+.cue
Продолжительность: 55:15
Треклист:
01. Excreteass – Kill Poser
02. Disgunder – Victim Increase (2014 Remaster)
03. Disgunder – Disaster Of Mind (2014 Remaster)
04. Not A Name Soldiers – Disarm
05. Parasite – Lilith
06. Necrophile – Desire For Asphyxia
07. Disgust – Absurd World (2014 Remaster)
08. Disgust – Fight For The Future (2014 Remaster)
09. Sobbed – Slave Of Money (Malebolgia cover)
10. Little Bastards – Murder
11. Little Bastards – Mind Terror
12. Death Dust Extractor – Smash The Racism Song
13. Self Deconstruction – Disaster
14. Self Deconstruction – Grace Period
15. Return – A New Form Of Slavery (Concrete Sox cover)
16. Top Breeder – The Act Of Being Immoralist
17. 破戒 (Hakai) – 偶像崇拝
18. 破戒 (Hakai) – Death To Liar
19. Vulgaroyal Bloodhill – Soberbia
20. Red – For Somebody Who Has Own Attitude
21. Fortitude – Fog Camp (KGS cover)
22. Brob – Morbid Generation
23. Brob – Wage Slave
24. Bloodshot – Overdose
25. Unholy Grave – Thunder Vibration
26. Unholy Grave – Overprotected Law (少年法)
Код: Выделить всё
Exact Audio Copy V1.0 beta 3 from 29. August 2011

EAC extraction logfile from 12. December 2014, 14:21

Various / Grind Bastards Vol. 8

Used drive  : TSSTcorpCDDVDW SH-216DB   Adapter: 0  ID: 1

Read mode               : Secure
Utilize accurate stream : Yes
Defeat audio cache      : Yes
Make use of C2 pointers : No

Read offset correction                      : 6
Overread into Lead-In and Lead-Out          : No
Fill up missing offset samples with silence : Yes
Delete leading and trailing silent blocks   : No
Null samples used in CRC calculations       : Yes
Used interface                              : Installed external ASPI interface

Used output format              : User Defined Encoder
Selected bitrate                : 1024 kBit/s
Quality                         : High
Add ID3 tag                     : Yes
Command line compressor         : C:\Program Files\Exact Audio Copy\Flac\flac.exe
Additional command line options : -8 -V -T "ARTIST=%artist%" -T "TITLE=%title%" -T "ALBUM=%albumtitle%" -T "DATE=%year%" -T "TRACKNUMBER=%tracknr%" -T "GENRE=%genre%" -T "COMMENT=%comment%" -T "BAND=%albuminterpret%" -T "COMPOSER=%composer%" %haslyrics%--tag-from-file=LYRICS="%lyricsfile%"%haslyrics% -T "TOTALTRACKS=%numtracks%" %hascover%--picture="%coverfile%"%hascover% %source% -o %dest%

TOC of the extracted CD

     Track |   Start  |  Length  | Start sector | End sector
    ---------------------------------------------------------
        1  |  0:00.00 |  1:54.01 |         0    |     8550
        2  |  1:54.01 |  1:19.00 |      8551    |    14475
        3  |  3:13.01 |  1:56.02 |     14476    |    23177
        4  |  5:09.03 |  2:29.14 |     23178    |    34366
        5  |  7:38.17 |  3:34.29 |     34367    |    50445
        6  | 11:12.46 |  3:35.38 |     50446    |    66608
        7  | 14:48.09 |  2:53.50 |     66609    |    79633
        8  | 17:41.59 |  2:34.03 |     79634    |    91186
        9  | 20:15.62 |  2:16.59 |     91187    |   101445
       10  | 22:32.46 |  1:20.44 |    101446    |   107489
       11  | 23:53.15 |  1:48.28 |    107490    |   115617
       12  | 25:41.43 |  1:36.00 |    115618    |   122817
       13  | 27:17.43 |  0:37.65 |    122818    |   125657
       14  | 27:55.33 |  1:23.21 |    125658    |   131903
       15  | 29:18.54 |  3:26.23 |    131904    |   147376
       16  | 32:45.02 |  1:10.23 |    147377    |   152649
       17  | 33:55.25 |  1:46.00 |    152650    |   160599
       18  | 35:41.25 |  2:52.36 |    160600    |   173535
       19  | 38:33.61 |  1:27.47 |    173536    |   180107
       20  | 40:01.33 |  2:28.46 |    180108    |   191253
       21  | 42:30.04 |  2:59.70 |    191254    |   204748
       22  | 45:29.74 |  1:04.73 |    204749    |   209621
       23  | 46:34.72 |  1:03.15 |    209622    |   214361
       24  | 47:38.12 |  4:14.01 |    214362    |   233412
       25  | 51:52.13 |  1:18.63 |    233413    |   239325
       26  | 53:11.01 |  2:04.17 |    239326    |   248642

Range status and errors

Selected range

     Filename Z:\LOSSLESS FOR SARGE #4\V.A. -2014- Grind Bastards Vol. 8\GRAVE-011.wav

     Peak level 67.3 %
     Extraction speed 6.3 X
     Range quality 100.0 %
     Test CRC 31FB431C
     Copy CRC 31FB431C
     Copy OK

No errors occurred

AccurateRip summary

Track  1  not present in database
Track  2  not present in database
Track  3  not present in database
Track  4  not present in database
Track  5  not present in database
Track  6  not present in database
Track  7  not present in database
Track  8  not present in database
Track  9  not present in database
Track 10  not present in database
Track 11  not present in database
Track 12  not present in database
Track 13  not present in database
Track 14  not present in database
Track 15  not present in database
Track 16  not present in database
Track 17  not present in database
Track 18  not present in database
Track 19  not present in database
Track 20  not present in database
Track 21  not present in database
Track 22  not present in database
Track 23  not present in database
Track 24  not present in database
Track 25  not present in database
Track 26  not present in database

None of the tracks are present in the AccurateRip database

End of status report

---- CUETools DB Plugin V2.1.5

[CTDB TOCID: _Yy7q1puZnYgzuEwpoGVeWy9qpo-] database access error: Время ожидания операции истекло

==== Log checksum 5D54AE950D0BB76106E7DC68FAFADE2076637303EA1DBB6D8A07F84B77730E92 ====
Раздача обновлена 28.03.15. Добавлен альбом 2014 года. Перекачайте торрент.
 
Не забывайте говорить Спасибо. Не уходите с раздачи!   
Торрент: Зарегистрирован [28 мар 2015, 19:27] Для скачивания .torrent
необходима регистрация
Или скачать с помощью
MediaGet
Статус:
Проверен
 
.torrent скачан: 1 раз
Хэш: 2e5320807e33ef2a4b1c2377e9a772af1f1e5cc1
Размер: 1.81 ГБ (1 947 893 788 байт)
Стать Автором раздачи
 
Аватара пользователя
 
Раздал: 3.77 ТБ
Скачал: 406.3 ГБ
Ратио: 9.496
Сообщения: 468702
Зарегистрирован: 20 янв 2011, 21:15


  • Похожие торренты
    Ответы
    Просмотры
    Последнее сообщение

Вернуться в Сборники "Зарубежный Metal" (lossless)

Ресурс не предоставляет электронные версии произведений, а занимается лишь коллекционированием и каталогизацией ссылок, присылаемых и публикуемых на форуме нашими читателями. Если вы являетесь правообладателем какого-либо представленного материала и не желаете чтобы ссылка на него находилась в нашем каталоге, свяжитесь с нами и мы незамедлительно удалим её. Файлы для обмена на трекере предоставлены пользователями сайта, и администрация не несёт ответственности за их содержание. Просьба не заливать файлы, защищенные авторскими правами, а также файлы нелегального содержания!
cron