(Metal) [CD] VA - Waldschrat Metal Festival - Festival Sampler 2008 - 2008, FLAC (image+.cue), lossless

 
 Статистика раздачи 
Размер: 598.38 МБ   |  Зарегистрирован: 16 апр 2015, 01:10   |   .torrent скачан: 0 раз
Сидеров: 1  [ 0 байт/сек ]     Личеров: 0  [ 0 байт/сек ]  
  

(Metal) [CD] VA - Waldschrat Metal Festival - Festival Sampler 2008 - 2008, FLAC (image+.cue), lossless

Сообщение Thelver1947 » 16 апр 2015, 01:10

Waldschrat Metal Festival - Festival Sampler 2008

Жанр: Metal
Носитель: CD
Страна-производитель диска (релиза): Germany
Год издания: 2008
Издатель (лейбл): Trollzorn Records
Номер по каталогу: none
Аудиокодек: FLAC (*.flac)
Тип рипа: image+.cue
Битрейт аудио: lossless
Продолжительность: 01:20:03
Источник (релизер): Maechlis ( спасибо )
Наличие сканов в содержимом раздачи: да
Треклист:
1. RUNIC - Predecessor
2. DALRIADA - Tuzhozo
3. NACHTGESCHREI - Deine Spur
4. FINSTERFORST - Traumwald
5. GERNOTSHAGEN - Dem Skirnir zu Ehren
6. ELIVAGAR - Wan
7. VATRA - Sadness
8. ALCHERA - Fraass
9. MEN ENTER TAVERN - Soldnertrinklied
10. KLABAUTAMANN - Negeder Mand
11. HELFAHRT - Lewwer Duad Us Slaav
12. TROLLECH - Volam do lesu
13. AES DANA - Les Griffes des oiseaux
14. REV 16:8 - Cravings
15. HEIMDALLS WACHT - Mythologem
16. VARGNATT - Portrait einer Nacht
Код: Выделить всё
Exact Audio Copy V1.0 beta 3 from 29. August 2011

EAC extraction logfile from 11. April 2015, 19:28

V.A. / Waldschrat Metal Festival Sampler 2008

Used drive  : PIONEER BD-RW   BDR-209M   Adapter: 0  ID: 1

Read mode               : Secure
Utilize accurate stream : Yes
Defeat audio cache      : Yes
Make use of C2 pointers : No

Read offset correction                      : 667
Overread into Lead-In and Lead-Out          : Yes
Fill up missing offset samples with silence : Yes
Delete leading and trailing silent blocks   : No
Null samples used in CRC calculations       : Yes
Used interface                              : Native Win32 interface for Win NT & 2000

Used output format              : User Defined Encoder
Selected bitrate                : 1024 kBit/s
Quality                         : High
Add ID3 tag                     : No
Command line compressor         : C:\Program Files (x86)\Exact Audio Copy\FLAC\FLAC.EXE
Additional command line options : -6 -V -T "ARTIST=%artist%" -T "TITLE=%title%" -T "ALBUM=%albumtitle%" -T "DATE=%year%" -T "TRACKNUMBER=%tracknr%" -T "GENRE=%genre%" -T "COMMENT=%comment%" %source% -o %dest%

TOC of the extracted CD

     Track |   Start  |  Length  | Start sector | End sector
    ---------------------------------------------------------
        1  |  0:00.00 |  5:17.72 |         0    |    23846
        2  |  5:17.72 |  4:00.04 |     23847    |    41850
        3  |  9:18.01 |  4:33.13 |     41851    |    62338
        4  | 13:51.14 |  5:12.57 |     62339    |    85795
        5  | 19:03.71 |  4:43.45 |     85796    |   107065
        6  | 23:47.41 |  2:48.18 |    107066    |   119683
        7  | 26:35.59 |  7:07.03 |    119684    |   151711
        8  | 33:42.62 |  4:10.26 |    151712    |   170487
        9  | 37:53.13 |  5:25.48 |    170488    |   194910
       10  | 43:18.61 |  5:01.30 |    194911    |   217515
       11  | 48:20.16 |  5:06.21 |    217516    |   240486
       12  | 53:26.37 |  3:26.52 |    240487    |   255988
       13  | 56:53.14 |  4:14.52 |    255989    |   275090
       14  | 61:07.66 |  5:08.09 |    275091    |   298199
       15  | 66:16.00 |  7:30.34 |    298200    |   331983
       16  | 73:46.34 |  6:16.56 |    331984    |   360239

Range status and errors

Selected range

     Filename F:\Music\V.A. - Waldschrat Metal Festival Sampler 2008.wav

     Peak level 98.7 %
     Extraction speed 1.5 X
     Range quality 100.0 %
     Test CRC 02787FC9
     Copy CRC 02787FC9
     Copy OK

No errors occurred

AccurateRip summary

Track  1  not present in database
Track  2  not present in database
Track  3  not present in database
Track  4  not present in database
Track  5  not present in database
Track  6  not present in database
Track  7  not present in database
Track  8  not present in database
Track  9  not present in database
Track 10  not present in database
Track 11  not present in database
Track 12  not present in database
Track 13  not present in database
Track 14  not present in database
Track 15  not present in database
Track 16  not present in database

None of the tracks are present in the AccurateRip database

End of status report

---- CUETools DB Plugin V2.1.3

[CTDB TOCID: 6proMeWDSBwr1hRH7qE58nM5iFw-] disk not present in database, Submit result: 6proMeWDSBwr1hRH7qE58nM5iFw- has been uploaded

==== Log checksum 912FADF05F4DD055A8C1E9563A68E15346E6FBB0D53193E6C9392DAA40675776 ====
Код: Выделить всё
REM GENRE Metal
REM DATE 2008
REM DISCID E512C310
REM COMMENT "ExactAudioCopy v1.0b3"
PERFORMER "V.A."
TITLE "Waldschrat Metal Festival Sampler 2008"
FILE "V.A. - Waldschrat Metal Festival Sampler 2008.flac" WAVE
  TRACK 01 AUDIO
    TITLE "Predeccessor"
    PERFORMER "RUNIC"
    INDEX 01 00:00:00
  TRACK 02 AUDIO
    TITLE "Tuzhozo"
    PERFORMER "DALRIADA"
    INDEX 01 05:17:72
  TRACK 03 AUDIO
    TITLE "Deine Spur"
    PERFORMER "NACHTGESCHREI"
    INDEX 01 09:18:01
  TRACK 04 AUDIO
    TITLE "Traumwald"
    PERFORMER "FINSTERFORST"
    INDEX 01 13:51:14
  TRACK 05 AUDIO
    TITLE "Dem Skirnir zu Ehren"
    PERFORMER "GERNOTSHAGEN"
    INDEX 01 19:03:71
  TRACK 06 AUDIO
    TITLE "Wan"
    PERFORMER "ELIVAGAR"
    INDEX 01 23:47:41
  TRACK 07 AUDIO
    TITLE "Sadness"
    PERFORMER "VATRA"
    INDEX 01 26:35:59
  TRACK 08 AUDIO
    TITLE "Fraass"
    PERFORMER "ALCHERA"
    INDEX 01 33:42:62
  TRACK 09 AUDIO
    TITLE "Soldnertrinkerlied"
    PERFORMER "MEN ENTER TAVERN"
    INDEX 01 37:53:13
  TRACK 10 AUDIO
    TITLE "Negeder Mand"
    PERFORMER "KLABAUTAMANN"
    INDEX 01 43:18:61
  TRACK 11 AUDIO
    TITLE "Lewwer Duad Us Slaav"
    PERFORMER "HELFAHRT"
    INDEX 01 48:20:16
  TRACK 12 AUDIO
    TITLE "Volem do lesu"
    PERFORMER "TROLLECH"
    INDEX 01 53:26:37
  TRACK 13 AUDIO
    TITLE "Les Griffes des oiseaux"
    PERFORMER "AES DANA"
    INDEX 01 56:53:14
  TRACK 14 AUDIO
    TITLE "Cravings"
    PERFORMER "REV 16:8"
    INDEX 01 61:07:66
  TRACK 15 AUDIO
    TITLE "Mythologem"
    PERFORMER "HEIMDALLS WACHT"
    INDEX 01 66:16:00
  TRACK 16 AUDIO
    TITLE "Portrait einer Nacht"
    PERFORMER "VARGNATT"
    INDEX 01 73:46:34
Код: Выделить всё
[CUETools log; Date: 11.04.2015 21:55:25; Version: 2.1.4]
 [CTDB TOCID: 6proMeWDSBwr1hRH7qE58nM5iFw-] found.
 Track | CTDB Status
   1   | (1/1) Accurately ripped
   2   | (1/1) Accurately ripped
   3   | (1/1) Accurately ripped
   4   | (1/1) Accurately ripped
   5   | (1/1) Accurately ripped
   6   | (1/1) Accurately ripped
   7   | (1/1) Accurately ripped
   8   | (1/1) Accurately ripped
   9   | (1/1) Accurately ripped
  10   | (1/1) Accurately ripped
  11   | (1/1) Accurately ripped
  12   | (1/1) Accurately ripped
  13   | (1/1) Accurately ripped
  14   | (1/1) Accurately ripped
  15   | (1/1) Accurately ripped
  16   | (1/1) Accurately ripped
 [AccurateRip ID: 002cd171-021c1771-e512c310] disk not present in database.

 Track Peak [ CRC32  ] [W/O NULL] [  LOG   ]
  --   98,7 [02787FC9] [371DD011]   CRC32
  01   98,7 [1A879F56] [6769E352]
  02   98,7 [F497538F] [C0DF1E18]
  03   98,7 [09685559] [19A79A69]
  04   98,7 [3EF6AAFE] [749BF156]
  05   98,7 [EDC32907] [B0B94D1E]
  06   98,7 [18122DCF] [C8FCFA2B]
  07   98,7 [7AD9C4C6] [42AE09EC]
  08   98,7 [2E51B451] [54948F57]
  09   98,7 [FE1DC0D6] [265722E9]
  10   98,7 [40D94360] [6260BAD8]
  11   98,7 [2A9A8186] [3524A9DB]
  12   98,7 [59223939] [F60776E0]
  13   98,7 [E7EF0288] [736F0F6A]
  14   98,7 [45F2D09D] [67F68353]
  15   98,7 [D69523A8] [43FA588A]
  16   98,7 [208AABD7] [2431C508]
 
Не забывайте говорить Спасибо. Не уходите с раздачи!   
Торрент: Зарегистрирован [16 апр 2015, 01:10] Для скачивания .torrent
необходима регистрация
Или скачать с помощью
MediaGet
Статус:
Проверен
 
.torrent скачан: 0 раз
Хэш: 50ad3c35f7b44c6c59c7660df766304606294142
Размер: 598.38 МБ (627 448 581 байт)
Стать Автором раздачи
 
 
Раздал: 690.52 МБ
Скачал: 0 байт
Ратио: Seed.
Сообщения: 218210
Зарегистрирован: 14 июн 2014, 21:11


  • Похожие торренты
    Ответы
    Просмотры
    Последнее сообщение

Вернуться в Сборники "Зарубежный Metal" (lossless)

Ресурс не предоставляет электронные версии произведений, а занимается лишь коллекционированием и каталогизацией ссылок, присылаемых и публикуемых на форуме нашими читателями. Если вы являетесь правообладателем какого-либо представленного материала и не желаете чтобы ссылка на него находилась в нашем каталоге, свяжитесь с нами и мы незамедлительно удалим её. Файлы для обмена на трекере предоставлены пользователями сайта, и администрация не несёт ответственности за их содержание. Просьба не заливать файлы, защищенные авторскими правами, а также файлы нелегального содержания!
cron