Гроб принцессы Чайки / Hitsugi no Chaika / Chaika the Coffin Princess [TV] [12 из 12] [RAW] [RUS] [2014, приключения, фэнтези, романтика, HDTVRip] [720p]

 
 Статистика раздачи 
Размер: 3.96 ГБ   |  Зарегистрирован: 10 июн 2015, 12:21   |   .torrent скачан: 0 раз
Сидеров: 1  [ 0 байт/сек ]     Личеров: 0  [ 0 байт/сек ]  
  

Гроб принцессы Чайки / Hitsugi no Chaika / Chaika the Coffin Princess [TV] [12 из 12] [RAW] [RUS] [2014, приключения, фэнтези, романтика, HDTVRip] [720p]

Сообщение ExaByte » 10 июн 2015, 12:21

Гроб принцессы Чайки / Hitsugi no Chaika / Chaika the Coffin Princess / 棺姫のチャイカ


Перевод: Любительский (многоголосый), субтитры: отсутствуют
Хардсаб: отсутствует
Формат: HDTVRip, MP4, H.264, AAC
Страна: Япония
Режиссер: Масуй Сойти
Жанр: приключения, фэнтези, романтика
Продолжительность: ТВ (12 эп.), 25 мин.
Год выпуска: 2014
Озвучивание: Специально для JazzWay Anime [Chokoba, Рапунцель-тян, Maosha-kun, Sined, Falloutman28, Rina, KRaeved, KrisLaKras]

Студия:

Описание: Как уже бывало не раз, дрязги и предательство развалили некогда могучую, а ныне одряхлевшую империю. Алчные соседи, активно поучаствовавшие в развале, растащили территорию поверженного врага на куски, а группа убийц, толпой набросившихся на последнего императора, так же поступила с его телом. Кстати, убийцы теперь зовутся Восемь героев, ведь в мире меча и волшебства даже частица тела великого мага-правителя – могущественный талисман, дающий силу хозяину. После этого шесть победивших наций долго разбирались между собой на руинах, но постепенно был создан единый Совет и настал долгожданный мир.

Тору Акура вместе с названной сестрой Акари – наемники-диверсанты, ныне сидящие без работы. Жить негде, впору подаваться в бандиты, и тут Тору встретил в лесу белокурую девочку, что тащила за собой солидный гроб. В ходе совместных приключений выяснилось, что в гробу лежит снайперское магоружье, а сама Чайка – принцесса, дочь последнего императора, которая хочет отобрать у Восьми героев останки своего отца и достойно похоронить его. Вот теперь Тору с Акари обрели достойную цель и решили помочь новой подруге. Хорошо бы только разжиревшие «герои» и их войска мешали, так еще самозваных Чаек налетело видимо-невидимо. Пора вводить конвенцию «детей императора Артура»!



Рейтинг World-Art: 8.0 из 10
Видео: 1280x720 (16:9), 25,000 кадров/сек, 1800 Кбит/сек, AVC (x264), , 0.078 bit/pixel
Аудио: 44,1 КГц, AAC, 2 канала, 128 Кбит/сек
Общее
Полное имя : C:\Users\User\Desktop\гроб принцессы чайки\(16+) Hitsugi no Chaika _ Гроб принцессы Чайки _ 3 серия _ [JazzWay Anime] [Мног.mp4
Формат : MPEG-4
Профиль формата : Base Media
Идентификатор кодека : isom
Размер файла : 337 Мбайт
Продолжительность : 23 м.
Общий поток : 1964 Кбит/сек
Программа кодирования : Lavf54.59.106

Видео
Идентификатор : 1
Формат : AVC
Формат/Информация : Advanced Video Codec
Профиль формата :
Параметр CABAC формата : Да
Параметр ReFrames формата : 4 кадра
Идентификатор кодека : avc1
Идентификатор кодека/Информация : Advanced Video Coding
Продолжительность : 23 м.
Битрейт : 1800 Кбит/сек
Ширина : 1280 пикселей
Высота : 720 пикселей
Соотношение сторон : 16:9
Режим частоты кадров : Постоянный
Частота кадров : 25,000 кадров/сек
Цветовое пространство : YUV
Субдискретизация насыщенности : 4:2:0
Битовая глубина : 8 бит
Тип развёртки : Прогрессивная
Бит/(Пиксели*Кадры) : 0.078
Размер потока : 314 Мбайт (93%)
Библиотека кодирования : x264 core 129
Настройки программы : cabac=1 / ref=3 / deblock=1:0:0 / analyse=0x3:0x113 / me=hex / subme=7 / psy=1 / psy_rd=1.00:0.00 / mixed_ref=1 / me_range=16 / chroma_me=1 / trellis=1 / 8x8dct=1 / cqm=0 / deadzone=21,11 / fast_pskip=1 / chroma_qp_offset=-2 / threads=24 / lookahead_threads=4 / sliced_threads=0 / nr=0 / decimate=1 / interlaced=0 / bluray_compat=0 / constrained_intra=0 / bframes=3 / b_pyramid=2 / b_adapt=1 / b_bias=0 / direct=1 / weightb=1 / open_gop=0 / weightp=2 / keyint=250 / keyint_min=25 / scenecut=40 / intra_refresh=0 / rc_lookahead=40 / rc=abr / mbtree=1 / bitrate=1800 / ratetol=1.0 / qcomp=0.60 / qpmin=0 / qpmax=69 / qpstep=4 / ip_ratio=1.40 / aq=1:1.00

Аудио
Идентификатор : 2
Формат : AAC
Формат/Информация : Advanced Audio Codec
Профиль формата : LC
Идентификатор кодека : 40
Продолжительность : 23 м.
Вид битрейта : Постоянный
Битрейт : 128 Кбит/сек
Каналы : 2 канала
Расположение каналов : Front: L R
Частота : 44,1 КГц
Метод сжатия : С потерями
Размер потока : 22,0 Мбайт (7%)
Язык : Russian




 
Не забывайте говорить Спасибо. Не уходите с раздачи!   
Торрент: Зарегистрирован [10 июн 2015, 12:21] Для скачивания .torrent
необходима регистрация
Или скачать с помощью
MediaGet
Статус:
Проверен
 
.torrent скачан: 0 раз
Хэш: 59b48d6bfb3297ece94a7c45ee4c25694fa677aa
Размер: 3.96 ГБ (4 248 450 727 байт)
Стать Автором раздачи
 
 
Раздал: 2.54 ГБ
Скачал: 0 байт
Ратио: Seed.
Сообщения: 236702
Зарегистрирован: 05 июл 2013, 10:11


  • Похожие торренты
    Ответы
    Просмотры
    Последнее сообщение

Вернуться в Аниме и всё, что с ним связано

Ресурс не предоставляет электронные версии произведений, а занимается лишь коллекционированием и каталогизацией ссылок, присылаемых и публикуемых на форуме нашими читателями. Если вы являетесь правообладателем какого-либо представленного материала и не желаете чтобы ссылка на него находилась в нашем каталоге, свяжитесь с нами и мы незамедлительно удалим её. Файлы для обмена на трекере предоставлены пользователями сайта, и администрация не несёт ответственности за их содержание. Просьба не заливать файлы, защищенные авторскими правами, а также файлы нелегального содержания!
cron