Покорение мира: Заговор «Звезды» / World Conquest Zvezda Plot / Sekai Seifuku: Bouryaku no Zvezda (Окамура Тэнсай) [TV] [12 из 12] [RAW] [RUS] [2014, приключения, комедия, HDTVRip] [720p]

 
 Статистика раздачи 
Размер: 4.14 ГБ   |  Зарегистрирован: 17 июн 2015, 23:26   |   .torrent скачан: 1 раз
Сидеров: 1  [ 0 байт/сек ]     Личеров: 0  [ 0 байт/сек ]  
  

Покорение мира: Заговор «Звезды» / World Conquest Zvezda Plot / Sekai Seifuku: Bouryaku no Zvezda (Окамура Тэнсай) [TV] [12 из 12] [RAW] [RUS] [2014, приключения, комедия, HDTVRip] [720p]

Сообщение ExaByte » 17 июн 2015, 23:26

Покорение мира: Заговор «Звезды» / World Conquest Zvezda Plot / Sekai Seifuku: Bouryaku no Zvezda / 世界征服~謀略のズヴィズダー~


Перевод: Любительский (многоголосый), субтитры: отсутствуют
Хардсаб: отсутствует
Формат: HDTVRip, MP4, H.264, AAC
Страна: Япония
Режиссер: Окамура Тэнсай
Жанр: приключения, комедия
Продолжительность: ТВ (12 эп. + спэшлы), 25 мин.
Год выпуска: 2014
Озвучивание: Специально для JazzWay Anime [Chokoba, Литария Теннер, Kiana, Rina, Рапунцель-тян, StoneFilosoph, KRaeved]

Студия:

Описание: В жестоком будущем внешне благополучная Япония стоит на грани гражданской войны. Что же делать? «Изменить мир!» - считает юная Кэйт Хосимия, создавшая тайную организацию «Звезда» со штаб-квартирой в местечке Западная Удогава (там табличка у входа для особо непонятливых). Сама Кэйт – прирожденный лидер, научную поддержку повстанцам обеспечивает украинская эмигрантка Наташа Васильченко, а боевые операции за бывшим бандитом Горо, он же Генерал Пепел, и его дочерью Ицукой по кличке Пламя. Столь громким именам надо соответствовать, и за неимением русского хрена члены группы регулярно пополняют силы и энергию, поедая удо – японский сельдерей!

Вот в такую веселую компанию попал сбежавший из дома школьник Асута Дзимон, получивший в партизанском отряде должность повара и кодовое имя Два. Бедняга Асута оказался меж двух огней – ведь его новые друзья в «Звезде», а родные и старые знакомые поголовно на стороне правительства или состоят в организации супергероев «Белый свет». Впрочем, как и у нас, формальные антагонисты, борцы за свободу и правоохранители частенько спокойно общаются между собой, ходят в одну баню, только сакэ вместе не пьют по причине малолетства. Конечно, иногда сражаться приходится – так это политика, она жить мешать не должна. А свет Звезды, товарищи, все равно рано или поздно воссияет над миром!
Рейтинг World-Art: 7.3 из 10



Видео: 1280x720 (16:9), 25,000 кадров/сек, 1800 Кбит/сек, AVC (x264), , 0.083 bit/pixel
Аудио: 44,1 КГц, AAC, 2 канала, 107 Кбит/сек
Общее
Полное имя : C:\Users\User\Desktop\завоевание мира\(14+) Sekai Seifuku_ Bouryaku no Zvezda _ Завоеватели мира_ операция Звезда _ 3 .mp4
Формат : MPEG-4
Профиль формата : Base Media
Идентификатор кодека : isom
Размер файла : 349 Мбайт
Продолжительность : 24 м.
Режим общего битрейта : Переменный
Общий поток : 2029 Кбит/сек
Программа кодирования : Lavf54.59.106

Видео
Идентификатор : 1
Формат : AVC
Формат/Информация : Advanced Video Codec
Профиль формата :
Параметр CABAC формата : Да
Параметр ReFrames формата : 4 кадра
Идентификатор кодека : avc1
Идентификатор кодека/Информация : Advanced Video Coding
Продолжительность : 24 м.
Битрейт : 1916 Кбит/сек
Номинальный битрейт : 1800 Кбит/сек
Ширина : 1280 пикселей
Высота : 720 пикселей
Соотношение сторон : 16:9
Режим частоты кадров : Постоянный
Частота кадров : 25,000 кадров/сек
Цветовое пространство : YUV
Субдискретизация насыщенности : 4:2:0
Битовая глубина : 8 бит
Тип развёртки : Прогрессивная
Бит/(Пиксели*Кадры) : 0.083
Размер потока : 329 Мбайт (94%)
Библиотека кодирования : x264 core 129
Настройки программы : cabac=1 / ref=3 / deblock=1:0:0 / analyse=0x3:0x113 / me=hex / subme=7 / psy=1 / psy_rd=1.00:0.00 / mixed_ref=1 / me_range=16 / chroma_me=1 / trellis=1 / 8x8dct=1 / cqm=0 / deadzone=21,11 / fast_pskip=1 / chroma_qp_offset=-2 / threads=24 / lookahead_threads=4 / sliced_threads=0 / nr=0 / decimate=1 / interlaced=0 / bluray_compat=0 / constrained_intra=0 / bframes=3 / b_pyramid=2 / b_adapt=1 / b_bias=0 / direct=1 / weightb=1 / open_gop=0 / weightp=2 / keyint=250 / keyint_min=25 / scenecut=40 / intra_refresh=0 / rc_lookahead=40 / rc=abr / mbtree=1 / bitrate=1800 / ratetol=1.0 / qcomp=0.60 / qpmin=0 / qpmax=69 / qpstep=4 / ip_ratio=1.40 / aq=1:1.00

Аудио
Идентификатор : 2
Формат : AAC
Формат/Информация : Advanced Audio Codec
Профиль формата : LC
Идентификатор кодека : 40
Продолжительность : 24 м.
Вид битрейта : Переменный
Битрейт : 107 Кбит/сек
Максимальный битрейт : 128 Кбит/сек
Каналы : 2 канала
Расположение каналов : Front: L R
Частота : 44,1 КГц
Метод сжатия : С потерями
Размер потока : 18,3 Мбайт (5%)
Язык : Russian




 
Не забывайте говорить Спасибо. Не уходите с раздачи!   
Торрент: Зарегистрирован [17 июн 2015, 23:26] Для скачивания .torrent
необходима регистрация
Или скачать с помощью
MediaGet
Статус:
Проверен
 
.torrent скачан: 1 раз
Хэш: 34cf7cc744a4a17b04c6a9115ee200cf1b557f77
Размер: 4.14 ГБ (4 442 527 979 байт)
Стать Автором раздачи
 
 
Раздал: 2.54 ГБ
Скачал: 0 байт
Ратио: Seed.
Сообщения: 236702
Зарегистрирован: 05 июл 2013, 10:11


  • Похожие торренты
    Ответы
    Просмотры
    Последнее сообщение

Вернуться в Аниме и всё, что с ним связано

Ресурс не предоставляет электронные версии произведений, а занимается лишь коллекционированием и каталогизацией ссылок, присылаемых и публикуемых на форуме нашими читателями. Если вы являетесь правообладателем какого-либо представленного материала и не желаете чтобы ссылка на него находилась в нашем каталоге, свяжитесь с нами и мы незамедлительно удалим её. Файлы для обмена на трекере предоставлены пользователями сайта, и администрация не несёт ответственности за их содержание. Просьба не заливать файлы, защищенные авторскими правами, а также файлы нелегального содержания!
cron