Несокрушимая механическая кукла / Machine-Doll wa Kizutsukanai / Unbreakable Machine-Doll (Ёсимото Киндзи) [TV] [12 из 12] [RAW] [RUS] [2013, приключения, фэнтези, романтика, HDTVRip] [720p]

 
 Статистика раздачи 
Размер: 4.12 ГБ   |  Зарегистрирован: 18 июн 2015, 16:45   |   .torrent скачан: 1 раз
Сидеров: 1  [ 0 байт/сек ]     Личеров: 0  [ 0 байт/сек ]  
  

Несокрушимая механическая кукла / Machine-Doll wa Kizutsukanai / Unbreakable Machine-Doll (Ёсимото Киндзи) [TV] [12 из 12] [RAW] [RUS] [2013, приключения, фэнтези, романтика, HDTVRip] [720p]

Сообщение bagouser » 18 июн 2015, 16:45

Несокрушимая механическая кукла / Machine-Doll wa Kizutsukanai / Unbreakable Machine-Doll / 機巧少女は傷つかない / 機巧少女[マシンドール]は傷つかない


Перевод: Любительский (двухголосый), субтитры: отсутствуют
Хардсаб: отсутствует
Формат: HDTVRip, MP4, H.264, AAC
Страна: Япония
Режиссер: Ёсимото Киндзи
Жанр: приключения, фэнтези, романтика
Продолжительность: ТВ (12 эп.), 25 мин.
Год выпуска: 2013
Озвучивание: Специально для JazzWay Anime [Chokoba & Рапунцель-тян ]

Студия:

Описание: В мире победившего стимпанка чудеса науки никого не удивляют. На пороге альтернативного Нового времени алхимия срослась с механикой и дала рождение «автоматам», которых мы бы назвали фамильярами, роботами или киборгами. Примитивные автоматы – лишь куклы, команды которым дает оператор, а самые продвинутые – настоящие искусственные личности, обладающие разумом и собственным волшебством. Для создания таких существ, мечты правителей и военных, нужно идти по грани законов природы, сплавляя магией бездушные элементы и живую плоть, но чего не сделаешь ради силы и власти!

17-летний Райсин Акабанэ из древнего рода оммёдзи в одну ночь потерял семью. Парня спасла Сёко Карюсай, гениальный мастер и таинственная женщина. Акабанэ дал слово служить ей, а взамен получил возможность рассчитаться за близких. Сначала пришлось тренироваться с новой напарницей Яйей – одним из лучших творений Сёко, андроидом-бойцом, неотличимым от человека. А потом пришла настоящая работа – внедриться в английскую Королевскую академию, знаменитую школу магов, где скрывается убийца семьи Райсина. Во время местного турнира, Вальпургиевой Ночи, встреча с кровником неизбежна – если, конечно, горячий восточный парень обуздает стремительно формирующийся гарем!
Рейтинг World-Art: 7.7 из 10



Видео: 1280x720 (16:9), 25,000 кадров/сек, 1800 Кбит/сек, AVC (x264), , 0.078 bit/pixel
Аудио: 44,1 КГц, AAC, 2 канала, 128 Кбит/сек
Общее
Полное имя : C:\Users\User\Desktop\несокрушимая меха\(16+) Несокрушимая Механическая Кукла _ Unbreakable Machine Doll _ Kikou Shoujo .mp4
Формат : MPEG-4
Профиль формата : Base Media
Идентификатор кодека : isom
Размер файла : 336 Мбайт
Продолжительность : 24 м.
Общий поток : 1958 Кбит/сек
Программа кодирования : Lavf54.59.106

Видео
Идентификатор : 1
Формат : AVC
Формат/Информация : Advanced Video Codec
Профиль формата :
Параметр CABAC формата : Да
Параметр ReFrames формата : 4 кадра
Идентификатор кодека : avc1
Идентификатор кодека/Информация : Advanced Video Coding
Продолжительность : 23 м.
Битрейт : 1800 Кбит/сек
Ширина : 1280 пикселей
Высота : 720 пикселей
Соотношение сторон : 16:9
Режим частоты кадров : Постоянный
Частота кадров : 25,000 кадров/сек
Цветовое пространство : YUV
Субдискретизация насыщенности : 4:2:0
Битовая глубина : 8 бит
Тип развёртки : Прогрессивная
Бит/(Пиксели*Кадры) : 0.078
Размер потока : 313 Мбайт (93%)
Библиотека кодирования : x264 core 129
Настройки программы : cabac=1 / ref=3 / deblock=1:0:0 / analyse=0x3:0x113 / me=hex / subme=7 / psy=1 / psy_rd=1.00:0.00 / mixed_ref=1 / me_range=16 / chroma_me=1 / trellis=1 / 8x8dct=1 / cqm=0 / deadzone=21,11 / fast_pskip=1 / chroma_qp_offset=-2 / threads=24 / lookahead_threads=4 / sliced_threads=0 / nr=0 / decimate=1 / interlaced=0 / bluray_compat=0 / constrained_intra=0 / bframes=3 / b_pyramid=2 / b_adapt=1 / b_bias=0 / direct=1 / weightb=1 / open_gop=0 / weightp=2 / keyint=250 / keyint_min=25 / scenecut=40 / intra_refresh=0 / rc_lookahead=40 / rc=abr / mbtree=1 / bitrate=1800 / ratetol=1.0 / qcomp=0.60 / qpmin=0 / qpmax=69 / qpstep=4 / ip_ratio=1.40 / aq=1:1.00

Аудио
Идентификатор : 2
Формат : AAC
Формат/Информация : Advanced Audio Codec
Профиль формата : LC
Идентификатор кодека : 40
Продолжительность : 24 м.
Вид битрейта : Постоянный
Битрейт : 128 Кбит/сек
Каналы : 2 канала
Расположение каналов : Front: L R
Частота : 44,1 КГц
Метод сжатия : С потерями
Размер потока : 22,0 Мбайт (7%)
Язык : Russian




 
Не забывайте говорить Спасибо. Не уходите с раздачи!   
Торрент: Зарегистрирован [18 июн 2015, 16:45] Для скачивания .torrent
необходима регистрация
Или скачать с помощью
MediaGet
Статус:
Проверен
 
.torrent скачан: 1 раз
Хэш: e05e6c06c90b201c9ed702d6396c501978dd82e5
Размер: 4.12 ГБ (4 428 664 723 байт)
Стать Автором раздачи
 
Аватара пользователя
 
Раздал: 3.77 ТБ
Скачал: 406.3 ГБ
Ратио: 9.496
Сообщения: 468702
Зарегистрирован: 20 янв 2011, 21:15


  • Похожие торренты
    Ответы
    Просмотры
    Последнее сообщение

Вернуться в Аниме и всё, что с ним связано

Ресурс не предоставляет электронные версии произведений, а занимается лишь коллекционированием и каталогизацией ссылок, присылаемых и публикуемых на форуме нашими читателями. Если вы являетесь правообладателем какого-либо представленного материала и не желаете чтобы ссылка на него находилась в нашем каталоге, свяжитесь с нами и мы незамедлительно удалим её. Файлы для обмена на трекере предоставлены пользователями сайта, и администрация не несёт ответственности за их содержание. Просьба не заливать файлы, защищенные авторскими правами, а также файлы нелегального содержания!
cron