Истинно геройский файт / Senyuu (Ямамото Ютака) [TV] [13 из 13] [RAW] [RUS] [2013, пародия, фэнтези, HDTVRip] [720p]

 
 Статистика раздачи 
Размер: 855.2 МБ   |  Зарегистрирован: 18 июн 2015, 16:46   |   .torrent скачан: 0 раз
Сидеров: 1  [ 0 байт/сек ]     Личеров: 0  [ 0 байт/сек ]  
  

Истинно геройский файт / Senyuu (Ямамото Ютака) [TV] [13 из 13] [RAW] [RUS] [2013, пародия, фэнтези, HDTVRip] [720p]

Сообщение bagouser » 18 июн 2015, 16:46

Истинно геройский файт / Senyuu / 戦勇


Перевод: Любительский (одноголосый), субтитры: отсутствуют
Хардсаб: отсутствует
Формат: HDTVRip, MP4, H.264, AAC
Страна: Япония
Режиссер: Ямамото Ютака
Жанр: пародия, фэнтези
Продолжительность: ТВ (13 эп. + спэшлы), 5 мин.
Год выпуска: 2013
Озвучивание: Специально для JazzWay Anime [Chokoba]

Студия:

Описание: По сюжету, гигантские отверстия внезапно открылись в мире однажды, и из них демоны появились. Король подумал, что это предвещает возвращение короля демонов Rukimedes, который был запечатан героем Creasion тысячелетия назад. Король объявил, что потомки героя должны взять на себя опасное бремя, и 75 человек объявились. Герой года № 45 (Альба) и садистский дворцовый воин (Росс), команда, и их приключения начинаются.
Рейтинг World-Art: 7.9 из 10



Видео: 1280x720 (16:9), 25,000 кадров/сек, 1800 Кбит/сек, AVC (x264), , 0.078 bit/pixel
Аудио: 44,1 КГц, AAC, 2 канала, 128 Кбит/сек
Общее
Полное имя : C:\Users\User\Desktop\истинно г файт 1\(14+) Senyuu _ Истинно Геройский Файт - 01 серия [Chokoba][JazzWay.su].mp4
Формат : MPEG-4
Профиль формата : Base Media
Идентификатор кодека : isom
Размер файла : 64,8 Мбайт
Продолжительность : 4 м. 29 с.
Общий поток : 2013 Кбит/сек
Программа кодирования : Lavf54.59.106

Видео
Идентификатор : 1
Формат : AVC
Формат/Информация : Advanced Video Codec
Профиль формата :
Параметр CABAC формата : Да
Параметр ReFrames формата : 4 кадра
Идентификатор кодека : avc1
Идентификатор кодека/Информация : Advanced Video Coding
Продолжительность : 4 м. 29 с.
Битрейт : 1800 Кбит/сек
Ширина : 1280 пикселей
Высота : 720 пикселей
Соотношение сторон : 16:9
Режим частоты кадров : Постоянный
Частота кадров : 25,000 кадров/сек
Цветовое пространство : YUV
Субдискретизация насыщенности : 4:2:0
Битовая глубина : 8 бит
Тип развёртки : Прогрессивная
Бит/(Пиксели*Кадры) : 0.078
Размер потока : 60,4 Мбайт (93%)
Библиотека кодирования : x264 core 129
Настройки программы : cabac=1 / ref=3 / deblock=1:0:0 / analyse=0x3:0x113 / me=hex / subme=7 / psy=1 / psy_rd=1.00:0.00 / mixed_ref=1 / me_range=16 / chroma_me=1 / trellis=1 / 8x8dct=1 / cqm=0 / deadzone=21,11 / fast_pskip=1 / chroma_qp_offset=-2 / threads=24 / lookahead_threads=4 / sliced_threads=0 / nr=0 / decimate=1 / interlaced=0 / bluray_compat=0 / constrained_intra=0 / bframes=3 / b_pyramid=2 / b_adapt=1 / b_bias=0 / direct=1 / weightb=1 / open_gop=0 / weightp=2 / keyint=250 / keyint_min=25 / scenecut=40 / intra_refresh=0 / rc_lookahead=40 / rc=abr / mbtree=1 / bitrate=1800 / ratetol=1.0 / qcomp=0.60 / qpmin=0 / qpmax=69 / qpstep=4 / ip_ratio=1.40 / aq=1:1.00

Аудио
Идентификатор : 2
Формат : AAC
Формат/Информация : Advanced Audio Codec
Профиль формата : LC
Идентификатор кодека : 40
Продолжительность : 4 м. 29 с.
Duration_LastFrame : -9 мс.
Вид битрейта : Постоянный
Битрейт : 128 Кбит/сек
Каналы : 2 канала
Расположение каналов : Front: L R
Частота : 44,1 КГц
Метод сжатия : С потерями
Размер потока : 4,12 Мбайт (6%)




 
Не забывайте говорить Спасибо. Не уходите с раздачи!   
Торрент: Зарегистрирован [18 июн 2015, 16:46] Для скачивания .torrent
необходима регистрация
Или скачать с помощью
MediaGet
Статус:
Проверен
 
.torrent скачан: 0 раз
Хэш: 7f72cb11affd10e3c107aa883aa35754425fc435
Размер: 855.2 МБ (896 739 878 байт)
Стать Автором раздачи
 
Аватара пользователя
 
Раздал: 3.77 ТБ
Скачал: 406.3 ГБ
Ратио: 9.496
Сообщения: 468702
Зарегистрирован: 20 янв 2011, 21:15


  • Похожие торренты
    Ответы
    Просмотры
    Последнее сообщение

Вернуться в Аниме и всё, что с ним связано

Ресурс не предоставляет электронные версии произведений, а занимается лишь коллекционированием и каталогизацией ссылок, присылаемых и публикуемых на форуме нашими читателями. Если вы являетесь правообладателем какого-либо представленного материала и не желаете чтобы ссылка на него находилась в нашем каталоге, свяжитесь с нами и мы незамедлительно удалим её. Файлы для обмена на трекере предоставлены пользователями сайта, и администрация не несёт ответственности за их содержание. Просьба не заливать файлы, защищенные авторскими правами, а также файлы нелегального содержания!
cron