Повар-боец Сома / Shokugeki no Souma / Food Wars! Shokugeki no Soma (Ёнэтани Ёситомо) [TV] [14 из 24] [RAW] [RUS] [2015, комедия, HDTVRip] [720p]

 
 Статистика раздачи 
Размер: 5.04 ГБ   |  Зарегистрирован: 29 июл 2015, 12:32   |   .torrent скачан: 0 раз
Сидеров: 1  [ 0 байт/сек ]     Личеров: 1  [ 0 байт/сек ]  
  

Повар-боец Сома / Shokugeki no Souma / Food Wars! Shokugeki no Soma (Ёнэтани Ёситомо) [TV] [14 из 24] [RAW] [RUS] [2015, комедия, HDTVRip] [720p]

Сообщение bagouser » 29 июл 2015, 12:32

Повар-боец Сома / Shokugeki no Souma / Food Wars! Shokugeki no Soma / 食戟のソーマ


Перевод: Любительский (многоголосый), субтитры: отсутствуют
Хардсаб: отсутствует
Формат: HDTVRip, MP4, H.264, AAC
Страна: Япония
Режиссер: Ёнэтани Ёситомо
Жанр: комедия
Продолжительность: ТВ (24 эп.), 25 мин.
Год выпуска: 2015
Озвучивание: Специально для JazzWay Anime [Рапунцель-тян, Joyni !, Apollo]

Студия:

Описание: Сома Юкихира – юный фанатик кулинарного искусства, мечтающий превзойти отца, известного шеф-повара. Дзёитиро, отец Сомы, бесподобно готовит простые и сытные блюда восточной кухни, потому их семейный ресторанчик популярен у офисных работяг – но на таких клиентах, увы, не заработаешь. Экспериментировать без денег трудно – и редкие необычные (и обычно неудачные) опыты отца и сына дегустируют разве что одноклассники Юкихиры-младшего. Значит, путь совершенствования парню остается только один – идти в кулинарную академию!

Кулинарная академия Тоцуки – легендарная старшая школа, которую окончили многие великие повара, в том числе и отец главного героя. Сословный дух в Тоцуки силен – но даровитый простак всегда может доказать, что достоин стоять рядом с потомками известных династий. Именно этим Сома и занялся, заселившись в общежитие Полярной Звезды, школьный приют небогатых, но амбициозных талантов. Академия поощряет соперничество, устраивая настоящие «кулинарные войны» - там-то Юкихира и покажет всем, особенно местной задаваке, директорской внучке Эрине, чей шеф-нож острее, вкус тоньше, а воображение богаче!



Видео: 1280x720 (16:9), 23,976 кадров/сек, 1980 Кбит/сек, AVC (x264), , 0.090 bit/pixel
Аудио: 44,1 КГц, AAC, 2 канала, 75,9 Кбит/сек
Общее
Полное имя : C:\Users\User\Desktop\повар-боец сома\[16+] Shokugeki no Souma _ 14 серия _ Повар-боец Сома [Многоголоска] [JazzWay An.mp4
Формат : MPEG-4
Профиль формата : Base Media
Идентификатор кодека : isom
Размер файла : 368 Мбайт
Продолжительность : 24 м.
Режим общего битрейта : Переменный
Общий поток : 2062 Кбит/сек
Программа кодирования : Lavf56.25.101

Видео
Идентификатор : 1
Формат : AVC
Формат/Информация : Advanced Video Codec
Профиль формата :
Параметр CABAC формата : Да
Параметр ReFrames формата : 4 кадра
Идентификатор кодека : avc1
Идентификатор кодека/Информация : Advanced Video Coding
Продолжительность : 24 м.
Битрейт : 1980 Кбит/сек
Ширина : 1280 пикселей
Высота : 720 пикселей
Соотношение сторон : 16:9
Режим частоты кадров : Постоянный
Частота кадров : 23,976 кадра/сек
Цветовое пространство : YUV
Субдискретизация насыщенности : 4:2:0
Битовая глубина : 8 бит
Тип развёртки : Прогрессивная
Бит/(Пиксели*Кадры) : 0.090
Размер потока : 353 Мбайт (96%)
Библиотека кодирования : x264 core 142
Настройки программы : cabac=1 / ref=3 / deblock=1:0:0 / analyse=0x3:0x113 / me=hex / subme=7 / psy=1 / psy_rd=1.00:0.00 / mixed_ref=1 / me_range=16 / chroma_me=1 / trellis=1 / 8x8dct=1 / cqm=0 / deadzone=21,11 / fast_pskip=1 / chroma_qp_offset=-2 / threads=4 / lookahead_threads=1 / sliced_threads=0 / nr=0 / decimate=1 / interlaced=0 / bluray_compat=0 / constrained_intra=0 / bframes=3 / b_pyramid=2 / b_adapt=1 / b_bias=0 / direct=1 / weightb=1 / open_gop=0 / weightp=2 / keyint=24 / keyint_min=2 / scenecut=40 / intra_refresh=0 / rc_lookahead=24 / rc=2pass / mbtree=1 / bitrate=1980 / ratetol=1.0 / qcomp=0.60 / qpmin=0 / qpmax=69 / qpstep=4 / cplxblur=20.0 / qblur=0.5 / ip_ratio=1.40 / aq=1:1.00

Аудио
Идентификатор : 2
Формат : AAC
Формат/Информация : Advanced Audio Codec
Профиль формата : LC
Идентификатор кодека : 40
Продолжительность : 24 м.
Duration_LastFrame : -8 мс.
Вид битрейта : Переменный
Битрейт : 75,9 Кбит/сек
Максимальный битрейт : 192 Кбит/сек
Каналы : 2 канала
Channel(s)_Original : 1 канал
Расположение каналов : Front: C
Частота : 44,1 КГц
Метод сжатия : С потерями
Размер потока : 13,6 Мбайт (4%)




Внимание! Раздача ведётся путём добавления новых серий; при каждом добавлении создается новый торрент. Чтобы начать докачку новой серии, пользователям необходимо сделать следующее:
(1) остановить скачивание,
(2) удалить старый торрент у себя из клиента (старые серии удалять не надо),
(3) скачать новый торрент и запустить его у себя в клиенте вместо старого, при этом указать клиенту путь в старую папку куда и должно происходить скачивание новых серий.

Ваш клиент при этом должен произвести хеширование (проверку) старой папки (если не производит сам - помогите ему сделать это), и будет докачивать только те серии которых у вас ещё нет. Старые серии при этом не удаляются, а продолжают раздаваться!

Если вы уже удалили старые серии, то предотвратить повторную закачку старых серий можно, отжав галочку в соответствующих местах при запуске нового торрента. По возможности, желательно не удалять старые серии как можно дольше чтобы релизёр не столько продолжал раздавать старые серии, а смог сконцентрироваться на новых.

 
Не забывайте говорить Спасибо. Не уходите с раздачи!   
Торрент: Зарегистрирован [29 июл 2015, 12:32] Для скачивания .torrent
необходима регистрация
Или скачать с помощью
MediaGet
Статус:
Проверен
 
.torrent скачан: 0 раз
Хэш: 5b26278ad69db380caaddc0005b6960238cbd570
Размер: 5.04 ГБ (5 414 595 552 байт)
Стать Автором раздачи
 
Аватара пользователя
 
Раздал: 3.77 ТБ
Скачал: 406.3 ГБ
Ратио: 9.496
Сообщения: 468702
Зарегистрирован: 20 янв 2011, 21:15


  • Похожие торренты
    Ответы
    Просмотры
    Последнее сообщение

Вернуться в Аниме и всё, что с ним связано

Ресурс не предоставляет электронные версии произведений, а занимается лишь коллекционированием и каталогизацией ссылок, присылаемых и публикуемых на форуме нашими читателями. Если вы являетесь правообладателем какого-либо представленного материала и не желаете чтобы ссылка на него находилась в нашем каталоге, свяжитесь с нами и мы незамедлительно удалим её. Файлы для обмена на трекере предоставлены пользователями сайта, и администрация не несёт ответственности за их содержание. Просьба не заливать файлы, защищенные авторскими правами, а также файлы нелегального содержания!
cron