Я не понимаю, о чем говорит мой муж 2 / Danna 2 / Danna ga Nani o Itteiruka Wakaranai Ken 2 Sureme (Нагай Симпэй) [TV-2] [13 из 13] [RAW] [RUS] [2015, комедия, повседневность, HDTVRip] [720p]

 
 Статистика раздачи 
Размер: 615.86 МБ   |  Зарегистрирован: 30 июл 2015, 13:20   |   .torrent скачан: 0 раз
Сидеров: 1  [ 0 байт/сек ]     Личеров: 0  [ 0 байт/сек ]  
  

Я не понимаю, о чем говорит мой муж 2 / Danna 2 / Danna ga Nani o Itteiruka Wakaranai Ken 2 Sureme (Нагай Симпэй) [TV-2] [13 из 13] [RAW] [RUS] [2015, комедия, повседневность, HDTVRip] [720p]

Сообщение bagouser » 30 июл 2015, 13:20

Я не понимаю, о чем говорит мой муж 2 / Danna 2 / Danna ga Nani o Itteiruka Wakaranai Ken 2 Sureme / 旦那 2 / 旦那が何を言っているかわからない件 2スレ目


Перевод: Любительский (двухголосый), субтитры: отсутствуют
Хардсаб: отсутствует
Формат: HDTVRip, MP4, H.264, AAC
Страна: Япония
Режиссер: Нагай Симпэй
Жанр: комедия, повседневность
Продолжительность: ТВ (13 эп.), 4 мин.
Год выпуска: 2015
Озвучивание: Специально для JazzWay Anime [Chokoba & Рапунцель-тян ]

Студия:

Описание: И снова мы возвращаемся к жизни серьезной, трудолюбивой офисной леди Каору и ее мужа-отаку.



Видео: 1280x720 (16:9), 23,976 кадров/сек, 1980 Кбит/сек, AVC (x264), , 0.090 bit/pixel
Аудио: 44,1 КГц, AAC, 2 канала, 152 Кбит/сек
Общее
Полное имя : C:\Users\User\Desktop\ZYGXUVV2\[18+] 2 сезон _ 12 серия _ Danna ga Nani o Itteiru ka Wakaranai Ken 2 Sure-me _ .mp4
Формат : MPEG-4
Профиль формата : Base Media
Идентификатор кодека : isom
Размер файла : 53,5 Мбайт
Продолжительность : 3 м. 29 с.
Режим общего битрейта : Переменный
Общий поток : 2138 Кбит/сек
Программа кодирования : Lavf56.25.101

Видео
Идентификатор : 1
Формат : AVC
Формат/Информация : Advanced Video Codec
Профиль формата :
Параметр CABAC формата : Да
Параметр ReFrames формата : 4 кадра
Идентификатор кодека : avc1
Идентификатор кодека/Информация : Advanced Video Coding
Продолжительность : 3 м. 29 с.
Битрейт : 1980 Кбит/сек
Ширина : 1280 пикселей
Высота : 720 пикселей
Соотношение сторон : 16:9
Режим частоты кадров : Постоянный
Частота кадров : 23,976 кадра/сек
Цветовое пространство : YUV
Субдискретизация насыщенности : 4:2:0
Битовая глубина : 8 бит
Тип развёртки : Прогрессивная
Бит/(Пиксели*Кадры) : 0.090
Размер потока : 49,5 Мбайт (93%)
Библиотека кодирования : x264 core 142
Настройки программы : cabac=1 / ref=3 / deblock=1:0:0 / analyse=0x3:0x113 / me=hex / subme=7 / psy=1 / psy_rd=1.00:0.00 / mixed_ref=1 / me_range=16 / chroma_me=1 / trellis=1 / 8x8dct=1 / cqm=0 / deadzone=21,11 / fast_pskip=1 / chroma_qp_offset=-2 / threads=4 / lookahead_threads=1 / sliced_threads=0 / nr=0 / decimate=1 / interlaced=0 / bluray_compat=0 / constrained_intra=0 / bframes=3 / b_pyramid=2 / b_adapt=1 / b_bias=0 / direct=1 / weightb=1 / open_gop=0 / weightp=2 / keyint=250 / keyint_min=23 / scenecut=40 / intra_refresh=0 / rc_lookahead=40 / rc=2pass / mbtree=1 / bitrate=1980 / ratetol=1.0 / qcomp=0.60 / qpmin=0 / qpmax=69 / qpstep=4 / cplxblur=20.0 / qblur=0.5 / ip_ratio=1.40 / aq=1:1.00

Аудио
Идентификатор : 2
Формат : AAC
Формат/Информация : Advanced Audio Codec
Профиль формата : LC
Идентификатор кодека : 40
Продолжительность : 3 м. 29 с.
Вид битрейта : Переменный
Битрейт : 152 Кбит/сек
Максимальный битрейт : 192 Кбит/сек
Каналы : 2 канала
Расположение каналов : Front: L R
Частота : 44,1 КГц
Метод сжатия : С потерями
Размер потока : 3,80 Мбайт (7%)




 
Не забывайте говорить Спасибо. Не уходите с раздачи!   
Торрент: Зарегистрирован [30 июл 2015, 13:20] Для скачивания .torrent
необходима регистрация
Или скачать с помощью
MediaGet
Статус:
Проверен
 
.torrent скачан: 0 раз
Хэш: fb6321b69d5f79aa812b0e0fa1da8491074ee050
Размер: 615.86 МБ (645 773 790 байт)
Стать Автором раздачи
 
Аватара пользователя
 
Раздал: 3.77 ТБ
Скачал: 406.3 ГБ
Ратио: 9.496
Сообщения: 468702
Зарегистрирован: 20 янв 2011, 21:15


  • Похожие торренты
    Ответы
    Просмотры
    Последнее сообщение

Вернуться в Аниме и всё, что с ним связано

Ресурс не предоставляет электронные версии произведений, а занимается лишь коллекционированием и каталогизацией ссылок, присылаемых и публикуемых на форуме нашими читателями. Если вы являетесь правообладателем какого-либо представленного материала и не желаете чтобы ссылка на него находилась в нашем каталоге, свяжитесь с нами и мы незамедлительно удалим её. Файлы для обмена на трекере предоставлены пользователями сайта, и администрация не несёт ответственности за их содержание. Просьба не заливать файлы, защищенные авторскими правами, а также файлы нелегального содержания!
cron