(Classic Rock & Hard Rock) [CD] VA - Various Artists - Immortal Randy Rhoads - 2015, FLAC (image+.cue), lossless

 
 Статистика раздачи 
Размер: 364.33 МБ   |  Зарегистрирован: 31 июл 2015, 17:19   |   .torrent скачан: 2 раз
Сидеров: 1  [ 0 байт/сек ]     Личеров: 0  [ 0 байт/сек ]  
  

(Classic Rock & Hard Rock) [CD] VA - Various Artists - Immortal Randy Rhoads - 2015, FLAC (image+.cue), lossless

Сообщение Thelver1947 » 31 июл 2015, 17:19

Various Artists - Immortal Randy Rhoads

Жанр: Heavy Metal / Hard Rock
Носитель: CD
Страна-производитель диска (релиза): Германия
Год издания: 2015
Издатель (лейбл): UDR GmbH
Аудиокодек: FLAC (*.flac)
Тип рипа: image+.cue
Битрейт аудио: lossless
Продолжительность: 52.24
Источник (релизер): Собственный диск
Наличие сканов в содержимом раздачи: нет
Треклист:
01.-Seerj Tankian - Crazy Train- (05:10)
02.-Ripper Owens - Over The Mountain- (04:31)
03.-Chuck Billy - Mr Crowley- (05:35)
04.-Ripper Owens - Believer- (06:03)
05.-Kelle Rhoads - Back To The Coast- (03:10)
06.-Ripper Owens - I Dont Know- (04:52)
07.-Ripper Owens - Sato- (04:07)
08.-Ripper Owens - Killer Girls- (04:28)
09.-Ripper Owens - Goodbye To Romance- (05:18)
10.-Ripper Owens - Suicide Solution- (04:30)
11.-Ripper Owens - Flying High Again- (04:36)
Код: Выделить всё
Exact Audio Copy V1.0 beta 3 from 29. August 2011

EAC extraction logfile from 19. April 2015, 19:44

Various Artists / Immortal Randy Rhoads

Used drive  : Optiarc DVD RW AD-7280S   Adapter: 1  ID: 1

Read mode               : Secure
Utilize accurate stream : Yes
Defeat audio cache      : Yes
Make use of C2 pointers : No

Read offset correction                      : 48
Overread into Lead-In and Lead-Out          : No
Fill up missing offset samples with silence : Yes
Delete leading and trailing silent blocks   : No
Null samples used in CRC calculations       : Yes
Used interface                              : Installed external ASPI interface

Used output format              : User Defined Encoder
Selected bitrate                : 128 kBit/s
Quality                         : High
Add ID3 tag                     : No
Command line compressor         : D:\Exact Audio Copy\FLAC\FLAC.EXE
Additional command line options : -8 -V -T "TITLE=%title%" -T "ARTIST=%artist%" -T "ALBUMARTIST=%albumartist%" -T "ALBUM=%albumtitle%" -T "DATE=%year%" -T "TRACKNUMBER=%tracknr%" -T "TRACKTOTAL=%numtracks%" -T "GENRE=%genre%" -T "COMMENT=%comment%" -T "PERFORMER=%albuminterpret%" -T "COMPOSER=%composer%" %source% -o %dest%

TOC of the extracted CD

     Track |   Start  |  Length  | Start sector | End sector
    ---------------------------------------------------------
        1  |  0:00.00 |  5:10.44 |         0    |    23293
        2  |  5:10.44 |  4:31.52 |     23294    |    43670
        3  |  9:42.21 |  5:35.09 |     43671    |    68804
        4  | 15:17.30 |  6:03.70 |     68805    |    96099
        5  | 21:21.25 |  3:10.01 |     96100    |   110350
        6  | 24:31.26 |  4:52.14 |    110351    |   132264
        7  | 29:23.40 |  4:07.27 |    132265    |   150816
        8  | 33:30.67 |  4:28.44 |    150817    |   170960
        9  | 37:59.36 |  5:18.19 |    170961    |   194829
       10  | 43:17.55 |  4:30.62 |    194830    |   215141
       11  | 47:48.42 |  4:36.24 |    215142    |   235865

Range status and errors

Selected range

     Filename D:\Мой докуметы\Моя музыка\БУРЖУЙСКАЯ\Immortal Randy Rhoads\Various Artists - Immortal Randy Rhoads.wav

     Peak level 98.9 %
     Extraction speed 4.0 X
     Range quality 100.0 %
     Test CRC 3A8346DC
     Copy CRC 3A8346DC
     Copy OK

No errors occurred

AccurateRip summary

Track  1  accurately ripped (confidence 1)  [C2B12ADC]  (AR v2)
Track  2  accurately ripped (confidence 1)  [D6C08A58]  (AR v2)
Track  3  accurately ripped (confidence 1)  [4C0A39AB]  (AR v2)
Track  4  accurately ripped (confidence 1)  [286B208A]  (AR v2)
Track  5  accurately ripped (confidence 1)  [4CD6D78A]  (AR v2)
Track  6  accurately ripped (confidence 1)  [10E4A89E]  (AR v2)
Track  7  accurately ripped (confidence 1)  [45EB98A3]  (AR v2)
Track  8  accurately ripped (confidence 1)  [BB020931]  (AR v2)
Track  9  accurately ripped (confidence 1)  [3F5824BE]  (AR v2)
Track 10  accurately ripped (confidence 1)  [C9724D27]  (AR v2)
Track 11  cannot be verified as accurate (confidence 1)  [2333F096], AccurateRip returned [65459E68]  (AR v2)

10 трек(и) скопированы точно
 1 трек(и) не удалось проверить на точность

Some tracks could not be verified as accurate

End of status report

---- CUETools DB Plugin V2.1.3

[CTDB TOCID: uFcLisf.3FesMlDos9aY_uqGLww-] found, Submit result: already submitted
[724b124d] (6/6) Accurately ripped

==== Log checksum 4C780604CCBA53FB2E6470D61536AACD4C76359316BC03B06FF5EEFC790A93A8 ====
Код: Выделить всё
REM GENRE "Heavy Metal"
REM DATE 2015
REM DISCID 980C480B
REM COMMENT "ExactAudioCopy v1.0b3"
PERFORMER "Various Artists"
TITLE "Immortal Randy Rhoads"
FILE "Various Artists - Immortal Randy Rhoads.flac" WAVE
  TRACK 01 AUDIO
    TITLE "Crazy Train"
    PERFORMER "Seerj Tankian"
    INDEX 01 00:00:00
  TRACK 02 AUDIO
    TITLE "Over The Mountain"
    PERFORMER "Ripper Owens"
    INDEX 01 05:10:44
  TRACK 03 AUDIO
    TITLE "Mr Crowley"
    PERFORMER "Chuck Billy"
    INDEX 01 09:42:21
  TRACK 04 AUDIO
    TITLE "Believer"
    PERFORMER "Ripper Owens"
    INDEX 01 15:17:30
  TRACK 05 AUDIO
    TITLE "Back To The Coast"
    PERFORMER "Kelle Rhoads"
    INDEX 01 21:21:25
  TRACK 06 AUDIO
    TITLE "I Dont Know"
    PERFORMER "Ripper Owens"
    INDEX 01 24:31:26
  TRACK 07 AUDIO
    TITLE "Sato"
    PERFORMER "Ripper Owens"
    INDEX 01 29:23:40
  TRACK 08 AUDIO
    TITLE "Killer Girls"
    PERFORMER "Ripper Owens"
    INDEX 01 33:30:67
  TRACK 09 AUDIO
    TITLE "Goodbye To Romance"
    PERFORMER "Ripper Owens"
    INDEX 01 37:59:36
  TRACK 10 AUDIO
    TITLE "Suicide Solution"
    PERFORMER "Ripper Owens"
    INDEX 01 43:17:55
  TRACK 11 AUDIO
    TITLE "Flying High Again"
    PERFORMER "Ripper Owens"
    INDEX 01 47:48:42
Один из самых почитаемых гитаристов, когда-либо ступавших по землям тяжелой музыки, великий, покойный Рэнди Роадс, известный по работе с Ozzy Osbourne и Quite Riot, не забыт! 3 марта 2015, в его честь вышел трибьют альбом, под названием «Immortal Randy Rhoads — The Ultimate Tribute».

Коллекция из 11 классических композиций авторства и соавторства Роадса, была сыграна 20 лучшими гитаристами современности, включая старых друзей и коллег по сцене: Руди Сарзо и Фрэнки Банали, брата Келли Роадса и таких известных музыкантов как Серж Танкян из System of a Down, Том Морелло из Rage Against the Machine, Винни Эпис (Dio, Heaven & Hell, Black Sabbath), Тим «Ripper» Оуэнс (Judas Priest, Iced Earth, Yngwie Malmsteen), Чак Билли из Testament, Алекси Лайхо из Children of Bodom, Джордж Линч (Dokken, Lynch Mob), Гас Джи (Firewind, Ozzy Osbourne), Брюс Кулик (Kiss), Даг Алдрих (Whitesnake, Dio), Двезил Заппа и другие.

В альбом вошли такие хэви-металические хиты как песня Ozzy Osbourne -«Mr. Crowley», сыгранная абсолютно звездным составом в лице Чака Билли, Алекси Лайхо, Келли Роадса, Руди Сарзо и Винни Эписа.
 
Не забывайте говорить Спасибо. Не уходите с раздачи!   
Торрент: Зарегистрирован [31 июл 2015, 17:19] Для скачивания .torrent
необходима регистрация
Или скачать с помощью
MediaGet
Статус:
Проверен
 
.torrent скачан: 2 раз
Хэш: 83e5e5028a11a9977355d6e59834686e98e1d013
Размер: 364.33 МБ (382 023 395 байт)
Стать Автором раздачи
 
 
Раздал: 690.52 МБ
Скачал: 0 байт
Ратио: Seed.
Сообщения: 218210
Зарегистрирован: 14 июн 2014, 21:11


  • Похожие торренты
    Ответы
    Просмотры
    Последнее сообщение

Вернуться в Сборники "Зарубежный Metal" (lossless)

Ресурс не предоставляет электронные версии произведений, а занимается лишь коллекционированием и каталогизацией ссылок, присылаемых и публикуемых на форуме нашими читателями. Если вы являетесь правообладателем какого-либо представленного материала и не желаете чтобы ссылка на него находилась в нашем каталоге, свяжитесь с нами и мы незамедлительно удалим её. Файлы для обмена на трекере предоставлены пользователями сайта, и администрация не несёт ответственности за их содержание. Просьба не заливать файлы, защищенные авторскими правами, а также файлы нелегального содержания!