(Power Metal) [CD] VA - Raza Metalica - Power Metal - 2003, FLAC (image+.cue), lossless

 
 Статистика раздачи 
Размер: 518.26 МБ   |  Зарегистрирован: 06 авг 2015, 15:47   |   .torrent скачан: 0 раз
Сидеров: 1  [ 0 байт/сек ]     Личеров: 0  [ 0 байт/сек ]  
  

(Power Metal) [CD] VA - Raza Metalica - Power Metal - 2003, FLAC (image+.cue), lossless

Сообщение bagouser » 06 авг 2015, 15:47

Raza Metalica - Power Metal

Жанр: Power Metal
Носитель: CD
Страна-производитель диска (релиза): Argentina
Год издания: 2003
Издатель (лейбл): Imperdible Discos / Patayya S.R.L.
Номер по каталогу: CD 998
Страна исполнителя (группы): Argentina
Аудиокодек: FLAC (*.flac)
Тип рипа: image+.cue
Битрейт аудио: lossless
Продолжительность: 01:06:15
Источник (релизер): Rivfader ( спасибо )
Наличие сканов в содержимом раздачи: да
Треклист:
01. SAUL BLANCH "Dama de la eternidad"
02. EL RELOJ "Hijos del sol"
03. JASON "Patria en oferta"
04. WALTER GIARDINO TEMPLE "La danza del fuego"
05. RENACER "Alas de fuego"
06. LORIHEN "El último eclipse"
07. P.I.R.A.M.I.D.E. "En el ocaso del destino"
08. AZEROTH "En agonía"
09. BETO VAZQUEZ INFINITY "The battle of the past"
10. HELKER "Basurero nuclear"
11. SELIDOR "Seca tus lágrimas"
12. JEZABEL "Sigue un paso más"
13. ATAVICA "El umbral"
14. HISTERIA "Lo que ocultan tus ojos"
15. INJURIA "La utopía"
Код: Выделить всё
Exact Audio Copy V1.0 beta 3 from 29. August 2011

EAC extraction logfile from 22. December 2014, 15:36

VV.AA. / Raza Metalica - Power Metal

Used drive  : TSSTcorpCDDVDW SE-S084F   Adapter: 2  ID: 1

Read mode               : Secure
Utilize accurate stream : Yes
Defeat audio cache      : Yes
Make use of C2 pointers : No

Read offset correction                      : 6
Overread into Lead-In and Lead-Out          : No
Fill up missing offset samples with silence : Yes
Delete leading and trailing silent blocks   : No
Null samples used in CRC calculations       : Yes
Used interface                              : Native Win32 interface for Win NT & 2000

Used output format              : User Defined Encoder
Selected bitrate                : 32 kBit/s
Quality                         : High
Add ID3 tag                     : Yes
Command line compressor         : C:\Program Files (x86)\Exact Audio Copy\FLAC.EXE
Additional command line options : -8 -V -T "ARTIST=%artist%" -T "TITLE=%title%" -T "ALBUM=%albumtitle%" -T "DATE=%year%" -T "TRACKNUMBER=%tracknr%" -T "GENRE=%genre%" -T "COMMENT=Ripped by  Rivfader[MMT]" %source% -o %dest%

TOC of the extracted CD

     Track |   Start  |  Length  | Start sector | End sector
    ---------------------------------------------------------
        1  |  0:00.00 |  3:32.62 |         0    |    15961
        2  |  3:32.62 |  4:19.46 |     15962    |    35432
        3  |  7:52.33 |  3:39.14 |     35433    |    51871
        4  | 11:31.47 |  4:32.38 |     51872    |    72309
        5  | 16:04.10 |  3:39.54 |     72310    |    88788
        6  | 19:43.64 |  5:04.60 |     88789    |   111648
        7  | 24:48.49 |  5:17.14 |    111649    |   135437
        8  | 30:05.63 |  3:59.72 |    135438    |   153434
        9  | 34:05.60 |  4:24.23 |    153435    |   173257
       10  | 38:30.08 |  4:36.58 |    173258    |   194015
       11  | 43:06.66 |  4:47.23 |    194016    |   215563
       12  | 47:54.14 |  3:46.22 |    215564    |   232535
       13  | 51:40.36 |  3:45.10 |    232536    |   249420
       14  | 55:25.46 |  5:15.32 |    249421    |   273077
       15  | 60:41.03 |  5:34.10 |    273078    |   298137

Range status and errors

Selected range

     Filename C:\MUSIC\Rivfader [MeTaLMaDNeSS.TeaM]\VV.AA. - Raza Metalica - Power Metal.wav

     Peak level 100.0 %
     Extraction speed 4.5 X
     Range quality 100.0 %
     Test CRC BFE7F69E
     Copy CRC BFE7F69E
     Copy OK

No errors occurred

AccurateRip summary

Track  1  not present in database
Track  2  not present in database
Track  3  not present in database
Track  4  not present in database
Track  5  not present in database
Track  6  not present in database
Track  7  not present in database
Track  8  not present in database
Track  9  not present in database
Track 10  not present in database
Track 11  not present in database
Track 12  not present in database
Track 13  not present in database
Track 14  not present in database
Track 15  not present in database

None of the tracks are present in the AccurateRip database

End of status report

---- CUETools DB Plugin V2.1.3

[CTDB TOCID: pHP.RPcd_cr1zbUGEK_dGNP.Q6I-] disk not present in database, Submit result: pHP.RPcd_cr1zbUGEK_dGNP.Q6I- has been uploaded
This is the ultimate compilation of Power Metal from Argentina (at least from the end of XX century and the beginning of the XXI century).
Give it a try, if you like power metal, you won't be disappointed, and this album could be the gate to enter the magnificent world of Argentinian Heavy Metal.
And, of course, as it couldn't be another way, the "omnipresent" Fabio Lione is a part of this compilation, performing lead vocals on track #09.

SAUL BLANCH "Dama de la eternidad" from Fiel A Sus Fieles (1990)* by Rivfader
EL RELOJ "Hijos del sol" from "Mercado de Almas" (2002)
JASON "Patria en oferta" from "En lo Alto del Cielo" (2001)
WALTER GIARDINO TEMPLE "La danza del fuego" from Walter Giardino Temple (1998) by Malnacido
RENACER "Alas de fuego" from Surcando Caminos EP (2003)
LORIHEN "El último eclipse" from Paradigma (2003) by godfather_of_evil
P.I.R.A.M.I.D.E. "En el ocaso del destino" from Máquina de la Eternidad (2002)
AZEROTH "En agonía" from Azeroth (2000) by spectral
BETO VAZQUEZ INFINITY "The battle of the past" (feat. Fabio Lione) from Beto Vazquez Infinity (2001) by Rivfader
HELKER "Basurero nuclear" from Basurero Nuclear (Demo) (2003)
SELIDOR "Seca tus lágrimas" from Destellos en la Oscuridad (2002)
JEZABEL "Sigue un paso más" from Legiones del Sur (2003) by ilijan
ATAVICA "El umbral" from Introspección (2003)
HISTERIA "Lo que ocultan tus ojos" from Fuego eterno (2003)
INJURIA "La utopía" from Amanecer de un Sueño (2002)

*The album version in our centralization is the 2012 remastered edition (first CD edition is from 2005). This song is taken from the original LP released in 1990.
 
Не забывайте говорить Спасибо. Не уходите с раздачи!   
Торрент: Зарегистрирован [06 авг 2015, 15:47] Для скачивания .torrent
необходима регистрация
Или скачать с помощью
MediaGet
Статус:
Проверен
 
.torrent скачан: 0 раз
Хэш: 7478b152c08aa34ca04e1d4b46537494a9223ed8
Размер: 518.26 МБ (543 434 193 байт)
Стать Автором раздачи
 
Аватара пользователя
 
Раздал: 3.77 ТБ
Скачал: 406.3 ГБ
Ратио: 9.496
Сообщения: 468702
Зарегистрирован: 20 янв 2011, 21:15


  • Похожие торренты
    Ответы
    Просмотры
    Последнее сообщение

Вернуться в Сборники "Зарубежный Metal" (lossless)

Ресурс не предоставляет электронные версии произведений, а занимается лишь коллекционированием и каталогизацией ссылок, присылаемых и публикуемых на форуме нашими читателями. Если вы являетесь правообладателем какого-либо представленного материала и не желаете чтобы ссылка на него находилась в нашем каталоге, свяжитесь с нами и мы незамедлительно удалим её. Файлы для обмена на трекере предоставлены пользователями сайта, и администрация не несёт ответственности за их содержание. Просьба не заливать файлы, защищенные авторскими правами, а также файлы нелегального содержания!